<?xml version="1.0" standalone="no"?>
<!DOCTYPE svg PUBLIC "-//W3C//DTD SVG 1.1//EN" "http://www.w3.org/Graphics/SVG/1.1/DTD/svg11.dtd" >
<svg xmlns="http://www.w3.org/2000/svg" xmlns:xlink="http://www.w3.org/1999/xlink" version="1.1">
<metadata>
Created by FontForge 20200427 at Fri Feb  8 20:51:49 2008
 By www
Copyright (c) 2007 Monotype Imaging Inc. Soho is designed by Sebastian Lester. All rights reserved.
</metadata>
<defs>
<font id="SohoGothicPro-Bold" horiz-adv-x="673" >
  <font-face 
    font-family="Soho Gothic Pro"
    font-weight="700"
    font-stretch="normal"
    units-per-em="1000"
    panose-1="2 11 8 3 3 5 4 2 2 4"
    ascent="790"
    descent="-210"
    x-height="570"
    cap-height="743"
    bbox="-80 -290 1545 1166"
    underline-thickness="50"
    underline-position="-100"
    unicode-range="U+0020-FE6A"
  />
<missing-glyph horiz-adv-x="500" 
d="M12 0v665h475v-665h-475zM88 618l162 -243l161 243h-323zM60 575v-484l40 61l80 120l41 61zM440 575l-162 -242l162 -243v485zM411 48l-161 242l-162 -242h323z" />
    <glyph glyph-name="f_f" unicode="ff" horiz-adv-x="834" 
d="M670 0h-174v446h-203v-446h-174v446l-95 11v113h95v47q0 89 40.5 133.5t132.5 44.5q72 0 136 -17v-98q-81 3 -82 3q-35 0 -44 -14t-9 -54v-45h203v47q0 89 40.5 133.5t132.5 44.5q72 0 136 -17v-98q-81 3 -82 3q-35 0 -44 -14t-9 -54v-45h133v-124h-133v-446z" />
    <glyph glyph-name="f_i" unicode="fi" horiz-adv-x="741" 
d="M293 0h-174v446l-96 10v114h96v47q0 91 39.5 134.5t132.5 43.5q72 0 136 -17v-98q-78 3 -82 3q-34 0 -43 -14t-9 -54v-45h376v-570h-174v446h-202v-446zM673 648h-181v131h181v-131z" />
    <glyph glyph-name="f_l" unicode="fl" horiz-adv-x="745" 
d="M293 0h-174v446l-96 11v113h96v45q0 102 47.5 141t148.5 39q72 0 184 -16h174v-779h-174v678q-80 5 -135 5q-41 0 -56 -12.5t-15 -55.5v-45h132v-124h-132v-446z" />
    <glyph glyph-name="f_f_i" unicode="ffi" horiz-adv-x="1117" 
d="M1045 0h-174v446h-202v-446h-173v446h-203v-446h-174v446l-95 11v113h95v47q0 90 40 134t133 44q72 0 136 -17v-98q-81 3 -82 3q-34 0 -43.5 -14t-9.5 -54v-45h203v47q0 90 40 134t132 44q72 0 136 -17v-98q-81 3 -82 3q-34 0 -43.5 -14t-9.5 -54v-45h376v-570zM1049 648
h-182v131h182v-131z" />
    <glyph glyph-name="f_f_l" unicode="ffl" horiz-adv-x="1120" 
d="M1049 0h-175v678q-78 5 -133 5q-42 0 -57 -12.5t-15 -55.5v-45h133v-124h-133v-446h-174v446h-202v-446h-174v446l-95 11v113h95v47q0 90 40 134t133 44q72 0 136 -17v-98q-81 3 -82 3q-35 0 -44 -14t-9 -54v-45h202v45q0 102 47.5 141t149.5 39q70 0 182 -16h175v-779z
" />
    <glyph glyph-name="f_b" unicode="fb" horiz-adv-x="1079" 
d="M293 0h-174v446l-96 11v113h96v44q0 101 48 141t150 40q89 0 177 -16h174v-215q52 22 117 22q127 0 187 -63t60 -197v-70q0 -144 -70.5 -207.5t-216.5 -63.5q-85 0 -251 15v677q-74 6 -131 6q-41 0 -55.5 -12.5t-14.5 -56.5v-44h132v-124h-132v-446zM667 121q57 -3 81 -3
q62 0 86.5 29t24.5 110v70q0 72 -21 99t-77 27q-59 0 -94 -17v-315z" />
    <glyph glyph-name="f_f_b" unicode="ffb" horiz-adv-x="1458" 
d="M671 0h-173v446h-205v-446h-174v446l-95 10v114h95v47q0 90 39.5 134t133.5 44q71 0 135 -17v-98q-12 0 -39.5 1.5t-40.5 1.5q-35 0 -44.5 -13.5t-9.5 -54.5v-45h205v45q0 101 48 140.5t148 39.5q75 0 179 -16h174v-214q49 21 117 21q127 0 187 -63t60 -197v-70
q0 -144 -70.5 -207.5t-216.5 -63.5q-100 0 -251 15v678q-75 5 -131 5q-40 0 -55.5 -12.5t-15.5 -55.5v-45h133v-124h-133v-446zM1238 257v70q0 72 -21 99t-77 27q-59 0 -94 -17v-315q48 -3 81 -3q62 0 86.5 29t24.5 110z" />
    <glyph glyph-name="f_h" unicode="fh" horiz-adv-x="1100" 
d="M1033 0h-174v359q0 55 -16.5 75t-58.5 20q-56 0 -115 -27v-427h-174v678q-80 5 -129 5q-42 0 -57.5 -12.5t-15.5 -55.5v-45h133v-124h-133v-446h-174v446l-95 11v113h95v45q0 102 49 141t151 39q77 0 176 -16h174v-234q80 40 171 40q111 0 152 -57t41 -167v-361z" />
    <glyph glyph-name="f_f_h" unicode="ffh" horiz-adv-x="1477" 
d="M1410 0h-175v359q0 55 -16 75t-58 20q-58 0 -114 -27v-427h-175v678q-80 5 -129 5q-43 0 -58.5 -12.5t-15.5 -55.5v-45h133v-124h-133v-446h-173v446h-203v-446h-174v446l-95 11v113h95v47q0 90 39.5 134t133.5 44q73 0 135 -17v-98q-78 3 -81 3q-35 0 -44 -14t-9 -54
v-45h203v45q0 102 48.5 141t151.5 39q77 0 176 -16h175v-234q74 39 170 39q111 0 152 -56.5t41 -166.5v-361z" />
    <glyph glyph-name="f_j" unicode="fj" horiz-adv-x="745" 
d="M293 0h-174v446l-95 11v113h95v47q0 89 40.5 133.5t132.5 44.5q73 0 135 -17v-98q-78 3 -81 3q-34 0 -43.5 -14t-9.5 -54v-45h380v-605q0 -101 -41.5 -142t-140.5 -41q-71 0 -100 9v110q38 -2 56 -2q32 0 42 13.5t10 52.5v481h-206v-446zM676 648h-182v131h182v-131z" />
    <glyph glyph-name="f_f_j" unicode="ffj" horiz-adv-x="1121" 
d="M669 0h-174v446h-202v-446h-174v446l-96 11v113h96v47q0 89 40 133.5t132 44.5q72 0 136 -17v-98q-81 3 -82 3q-34 0 -43 -14.5t-9 -53.5v-45h202v47q0 89 40.5 133.5t132.5 44.5q71 0 135 -17v-98q-81 3 -82 3q-34 0 -43 -14t-9 -54v-45h380v-605q0 -101 -41.5 -142
t-140.5 -41q-69 0 -100 9v110q36 -2 56 -2q32 0 41.5 13t9.5 53v481h-205v-446zM1053 648h-183v131h183v-131z" />
    <glyph glyph-name="f_k" unicode="fk" horiz-adv-x="1051" 
d="M1042 0h-197l-176 264v-264h-173v678q-82 5 -130 5q-42 0 -57.5 -12.5t-15.5 -55.5v-45h133v-124h-133v-446h-174v446l-95 11v113h95v45q0 102 49 141t151 39q78 0 177 -16h173v-461l179 252h187l-198 -274z" />
    <glyph glyph-name="f_f_k" unicode="ffk" horiz-adv-x="1428" 
d="M1419 0h-198l-176 264v-264h-174v678q-80 5 -128 5q-43 0 -58.5 -12.5t-15.5 -55.5v-45h133v-124h-133v-446h-174v446h-202v-446h-174v446l-95 10v114h95v47q0 89 40.5 133.5t132.5 44.5q72 0 136 -17v-98q-81 3 -82 3q-35 0 -44 -14t-9 -54v-45h202v45q0 102 49 141
t151 39q77 0 176 -16h174v-461l179 252h187l-198 -274z" />
    <glyph glyph-name=".notdef" horiz-adv-x="500" 
d="M12 0v665h475v-665h-475zM88 618l162 -243l161 243h-323zM60 575v-484l40 61l80 120l41 61zM440 575l-162 -242l162 -243v485zM411 48l-161 242l-162 -242h323z" />
    <glyph glyph-name=".null" horiz-adv-x="0" 
 />
    <glyph glyph-name="nonmarkingreturn" horiz-adv-x="333" 
 />
    <glyph glyph-name="space" unicode=" " horiz-adv-x="202" 
 />
    <glyph glyph-name="exclam" unicode="!" horiz-adv-x="330" 
d="M68 780h194l-17 -557h-160zM254 165v-165h-179v165h179z" />
    <glyph glyph-name="quotedbl" unicode="&#x22;" horiz-adv-x="482" 
d="M20 508l39 262h153l-69 -262h-123zM462 770l-70 -262h-122l39 262h153z" />
    <glyph glyph-name="numbersign" unicode="#" horiz-adv-x="769" 
d="M704 178h-131l-20 -178h-144l20 178h-137l-19 -178h-145l21 178h-86v109h97l17 158h-114v108h127l21 190h144l-21 -190h136l22 190h144l-21 -190h89v-108h-101l-18 -158h119v-109zM458 445h-136l-18 -158h137z" />
    <glyph glyph-name="dollar" unicode="$" 
d="M263 -127v112q-125 6 -186 22v122q154 -12 234 -12q60 0 87.5 19.5t27.5 61.5q0 32 -18 51.5t-69 41.5l-108 46q-89 38 -131 84.5t-42 132.5q0 90 51 138.5t154 61.5v107h147v-104q93 -5 178 -23v-120q-138 12 -231 12q-60 0 -88 -14.5t-28 -51.5q0 -29 17 -48t67 -39
l106 -43q97 -41 139 -89.5t42 -132.5q0 -189 -202 -219v-116h-147z" />
    <glyph glyph-name="percent" unicode="%" horiz-adv-x="1153" 
d="M1105 205q0 -215 -197 -215q-196 0 -196 215v38q0 214 196 214q197 0 197 -214v-38zM975 205v38q0 69 -17 93.5t-50 24.5t-49.5 -24.5t-16.5 -93.5v-38q0 -69 16.5 -94t49.5 -25t50 25t17 94zM895 745l-497 -745h-146l497 745h146zM440 508q0 -216 -196 -216t-196 216v36
q0 215 196 215t196 -215v-36zM310 508v36q0 69 -15 94.5t-51 25.5t-51 -26t-15 -94v-36q0 -70 15 -95t51 -25t51 25t15 95z" />
    <glyph glyph-name="ampersand" unicode="&#x26;" horiz-adv-x="817" 
d="M765 0h-168l-43 40q-81 -55 -223 -55q-282 0 -282 202v7q0 67 35 111.5t108 84.5l-8 9q-51 49 -75 91t-24 92v5q0 172 261 172q121 0 248 -25v-116q-117 10 -236 10q-48 0 -72 -12.5t-24 -46.5v-3q0 -29 13.5 -49.5t50.5 -55.5l244 -235q22 48 22 134l-47 8v84h231v-84
l-47 -8q0 -136 -63 -228l99 -95v-37zM465 127l-170 161q-35 -19 -50.5 -40t-15.5 -55v-6q0 -45 33.5 -67t84.5 -22q77 0 118 29z" />
    <glyph glyph-name="quotesingle" unicode="'" horiz-adv-x="232" 
d="M212 770l-69 -262h-123l39 262h153z" />
    <glyph glyph-name="parenleft" unicode="(" horiz-adv-x="399" 
d="M363 -201h-159q-61 83 -105 203.5t-44 264.5v7q0 145 44 265.5t105 203.5h159q-137 -215 -137 -469v-7q0 -254 137 -468z" />
    <glyph glyph-name="parenright" unicode=")" horiz-adv-x="399" 
d="M343 267q0 -145 -44 -265.5t-105 -202.5h-158q136 212 136 468v7q0 255 -136 469h158q61 -82 105 -203t44 -266v-7z" />
    <glyph glyph-name="asterisk" unicode="*" horiz-adv-x="550" 
d="M496 577l-61 -19q-30 -9 -74 -16q26 -21 51 -53l37 -49l-99 -72l-38 49q-18 24 -38 63q-14 -29 -37 -62l-38 -50l-99 72l38 50q15 23 49 53q-41 5 -72 15l-61 19l38 116l60 -19q34 -11 69 -29q-8 40 -8 71v62h123v-62q0 -34 -9 -72q35 19 70 30l61 19z" />
    <glyph glyph-name="plus" unicode="+" horiz-adv-x="677" 
d="M603 320h-199v-194h-131v194h-200v131h200v194h131v-194h199v-131z" />
    <glyph glyph-name="comma" unicode="," horiz-adv-x="349" 
d="M304 165l-135 -259h-141l94 259h182z" />
    <glyph glyph-name="hyphen" unicode="-" horiz-adv-x="376" 
d="M318 234h-261v121h261v-121z" />
    <glyph glyph-name="period" unicode="." horiz-adv-x="302" 
d="M238 0h-175v164h175v-164z" />
    <glyph glyph-name="slash" unicode="/" horiz-adv-x="495" 
d="M475 743l-278 -743h-178l279 743h177z" />
    <glyph glyph-name="zero" unicode="0" horiz-adv-x="706" 
d="M657 326q0 -343 -304 -343t-304 343v90q0 343 304 343t304 -343v-90zM469 326v90q0 115 -29 159t-87 44t-87 -44t-29 -159v-90q0 -115 29 -159t87 -44t87 44t29 159z" />
    <glyph glyph-name="one" unicode="1" horiz-adv-x="606" 
d="M556 0h-505v125l160 8v453l-160 -43v132l211 71h135v-613l159 -8v-125z" />
    <glyph glyph-name="two" unicode="2" horiz-adv-x="651" 
d="M589 0h-537v92q0 69 11 116.5t39.5 86t68 67.5t105.5 64q86 44 111.5 70t25.5 63q0 38 -28.5 53t-104.5 15q-115 0 -214 -11v112q105 31 245 31q152 0 222 -46t70 -144q0 -76 -45.5 -130t-160.5 -112q-105 -53 -133.5 -85t-28.5 -95v-10h354v-137z" />
    <glyph glyph-name="three" unicode="3" horiz-adv-x="652" 
d="M602 205q0 -119 -71.5 -170.5t-224.5 -51.5q-67 0 -139 10.5t-108 22.5v114q133 -13 228 -13q71 0 100 19t29 77v17q0 46 -21.5 67t-88.5 21h-202v122h203q65 0 87 22t22 68v10q0 51 -27 68.5t-103 17.5q-91 0 -225 -11v113q30 10 103.5 20.5t141.5 10.5q148 0 222 -46.5
t74 -158.5v-12q0 -115 -88 -162q88 -43 88 -157v-18z" />
    <glyph glyph-name="four" unicode="4" horiz-adv-x="710" 
d="M668 169h-99v-169h-187v169h-341v128l369 446h159v-446h99v-128zM391 297v249l-202 -249h202z" />
    <glyph glyph-name="five" unicode="5" horiz-adv-x="641" 
d="M592 220q0 -126 -77 -181.5t-223 -55.5q-136 0 -246 29v116q164 -14 208 -14q84 0 116.5 22.5t32.5 81.5v20q0 56 -29.5 76t-115.5 20h-204l34 409h480v-134h-330l-13 -148h71q165 0 230.5 -51.5t65.5 -169.5v-20z" />
    <glyph glyph-name="six" unicode="6" horiz-adv-x="688" 
d="M639 230q0 -69 -23.5 -118.5t-65.5 -76.5t-92 -39.5t-110 -12.5q-155 0 -227 72.5t-72 235.5v166q0 76 13 128t46 93t94 61t152 20q136 0 248 -28v-117q-140 12 -226 12q-48 0 -77 -8t-43.5 -28t-18.5 -43.5t-4 -63.5v-25q60 15 132 15q64 0 109.5 -8.5t85 -31
t59.5 -65.5t20 -107v-31zM455 229v29q0 60 -25 80.5t-84 20.5q-60 0 -113 -12v-86q0 -86 28 -118.5t88 -32.5q49 0 77.5 29.5t28.5 89.5z" />
    <glyph glyph-name="seven" unicode="7" horiz-adv-x="636" 
d="M597 595l-327 -595h-198l341 609h-372v134h556v-148z" />
    <glyph glyph-name="eight" unicode="8" horiz-adv-x="714" 
d="M663 213q0 -60 -16.5 -103t-42.5 -67.5t-68 -38t-81.5 -17.5t-95.5 -4h-5q-56 0 -95.5 4t-81.5 17.5t-67.5 38t-42 67.5t-16.5 103v7q0 109 82 163q-80 52 -80 158v9q0 63 22.5 106t66 64.5t93.5 30t119 8.5h5q69 0 119 -8.5t93.5 -30t66 -64.5t22.5 -106v-9
q0 -106 -79 -158q82 -54 82 -163v-7zM479 215v7q0 57 -17.5 80.5t-62.5 23.5h-84q-46 0 -63 -23.5t-17 -80.5v-7q0 -65 29 -87.5t90 -22.5h5q61 0 90.5 22.5t29.5 87.5zM477 535v9q0 52 -29.5 72t-88.5 20h-5q-59 0 -88.5 -20t-29.5 -72v-9q0 -47 17.5 -70t61.5 -23h84
q44 0 61 23t17 70z" />
    <glyph glyph-name="nine" unicode="9" horiz-adv-x="688" 
d="M639 288q0 -75 -13 -127.5t-46 -94.5t-94.5 -62.5t-152.5 -20.5q-136 0 -248 28v117q151 -13 230 -13q89 0 114 32t25 111v26q-58 -15 -132 -15q-63 0 -109 8.5t-85 31t-59 65.5t-20 107v31q0 68 23.5 117.5t65.5 77t92 40t110 12.5q155 0 227 -71t72 -232v-168zM454 394
v87q0 86 -27.5 118.5t-87.5 32.5q-49 0 -78 -29.5t-29 -89.5v-29q0 -60 25 -80.5t84 -20.5t113 11z" />
    <glyph glyph-name="colon" unicode=":" horiz-adv-x="314" 
d="M244 0h-175v165h175v-165zM244 406h-175v164h175v-164z" />
    <glyph glyph-name="semicolon" unicode=";" horiz-adv-x="328" 
d="M272 165l-126 -259h-140l79 259h187zM262 406h-176v164h176v-164z" />
    <glyph glyph-name="less" unicode="&#x3c;" horiz-adv-x="677" 
d="M573 121h-191l-279 265l279 265h191l-277 -265z" />
    <glyph glyph-name="equal" unicode="=" horiz-adv-x="677" 
d="M582 314v-131h-488v131h488zM582 454h-488v132h488v-132z" />
    <glyph glyph-name="greater" unicode="&#x3e;" horiz-adv-x="677" 
d="M573 386l-280 -265h-190l277 265l-277 265h190z" />
    <glyph glyph-name="question" unicode="?" horiz-adv-x="541" 
d="M291 0h-175v164h175v-164zM32 646v114q88 31 217 31q119 0 178 -40t59 -126v-8q0 -51 -22.5 -93t-80.5 -97q-67 -66 -85.5 -99t-18.5 -78v-26h-152v26q0 70 13.5 111.5t63.5 94.5q47 50 63 78t16 55v6q0 34 -22.5 46.5t-74.5 12.5q-56 0 -154 -8z" />
    <glyph glyph-name="at" unicode="@" horiz-adv-x="882" 
d="M837 369q0 -324 -381 -324q-120 0 -175 37.5t-55 122.5q0 41 5 81q12 110 66.5 158.5t156.5 48.5q90 0 182 -22l-33 -316q138 36 138 215q0 222 -263 222q-269 0 -325 -286q-13 -65 -13 -132q0 -114 63.5 -167t204.5 -53q114 0 189 9v-60q-86 -16 -188 -16
q-185 0 -274.5 71.5t-89.5 215.5q0 75 15 147q69 344 425 344q165 0 258.5 -76t93.5 -220zM495 393q-20 3 -47 3q-41 0 -62.5 -23.5t-27.5 -95.5q-4 -48 -4 -73q0 -38 18.5 -53t63.5 -15q21 0 34 1z" />
    <glyph glyph-name="A" unicode="A" horiz-adv-x="748" 
d="M727 0h-196l-53 187h-211l-54 -187h-192l207 743h290zM453 321l-54 197q-14 54 -23 114h-7q-11 -72 -23 -114l-53 -197h160z" />
    <glyph glyph-name="B" unicode="B" horiz-adv-x="711" 
d="M664 218q0 -55 -17 -96t-46.5 -66t-75.5 -39.5t-96 -20t-117 -5.5q-108 0 -239 9v743q139 9 241 9q177 0 261.5 -44t84.5 -165v-9q0 -109 -87 -153q47 -21 69 -62.5t22 -89.5v-11zM483 219v11q0 48 -27.5 70.5t-98.5 22.5h-104v-197q27 -1 74 -1q85 0 120.5 19t35.5 75z
M481 528v8q0 51 -34.5 66.5t-117.5 15.5q-47 0 -76 -1v-179h103q73 0 99 21.5t26 68.5z" />
    <glyph glyph-name="C" unicode="C" horiz-adv-x="616" 
d="M584 3q-29 -7 -92.5 -13.5t-108.5 -6.5q-169 0 -251.5 77t-82.5 269v86q0 192 82.5 268t251.5 76q45 0 109 -6.5t92 -14.5v-133q-113 9 -183 9q-87 0 -125 -41.5t-38 -157.5v-86q0 -117 38 -159t126 -42q82 0 182 8v-133z" />
    <glyph glyph-name="D" unicode="D" horiz-adv-x="738" 
d="M689 335q0 -180 -85 -262t-275 -82q-133 0 -256 9v743q122 9 256 9q187 0 273.5 -82t86.5 -258v-77zM505 335v77q0 116 -39 157.5t-135 41.5h-76v-480h76q96 0 135 44t39 160z" />
    <glyph glyph-name="E" unicode="E" horiz-adv-x="628" 
d="M579 0h-506v743h506v-136h-319v-162h298v-129h-298v-181h319v-135z" />
    <glyph glyph-name="F" unicode="F" horiz-adv-x="619" 
d="M580 606h-320v-162h298v-129h-298v-315h-187v743h507v-137z" />
    <glyph glyph-name="G" unicode="G" horiz-adv-x="705" 
d="M644 7q-125 -24 -267 -24q-57 0 -102.5 8.5t-89 31.5t-72.5 61t-46.5 100t-17.5 144v88q0 86 19.5 149.5t50 100t76.5 58t89 28.5t97 7q74 0 150 -9t110 -18v-127q-156 9 -225 9q-48 0 -78 -6.5t-55.5 -27t-37 -60.5t-11.5 -104v-88q0 -115 35 -157.5t116 -42.5
q61 0 85 2v271h174v-394z" />
    <glyph glyph-name="H" unicode="H" horiz-adv-x="800" 
d="M727 0h-187v313h-279v-313h-188v743h188v-288h279v288h187v-743z" />
    <glyph glyph-name="I" unicode="I" horiz-adv-x="333" 
d="M260 0h-187v743h187v-743z" />
    <glyph glyph-name="J" unicode="J" horiz-adv-x="333" 
d="M260 -23q0 -102 -47 -147t-151 -45q-59 0 -99 9v114q40 -2 53 -2q36 0 46.5 13t10.5 51v773h187v-766z" />
    <glyph glyph-name="K" unicode="K" horiz-adv-x="738" 
d="M731 0h-226l-241 345v-345h-188v743h188v-344l254 344h216l-277 -367z" />
    <glyph glyph-name="L" unicode="L" horiz-adv-x="579" 
d="M552 0h-479v743h188v-603h291v-140z" />
    <glyph glyph-name="M" unicode="M" horiz-adv-x="896" 
d="M823 0h-180v369q0 64 4 121h-2q-18 -40 -48 -95l-95 -174h-109l-93 174q-23 42 -48 95h-2q3 -64 3 -121v-369h-180v743h183l144 -264q23 -41 46 -91h2q31 64 47 92l145 263h183v-743z" />
    <glyph glyph-name="N" unicode="N" horiz-adv-x="776" 
d="M703 0h-194l-215 386q-29 52 -52 102h-2q3 -117 3 -120v-368h-170v743h191l217 -379q27 -49 53 -105h2q-3 52 -3 127v357h170v-743z" />
    <glyph glyph-name="O" unicode="O" horiz-adv-x="745" 
d="M696 333q0 -350 -324 -350q-323 0 -323 350v76q0 350 323 350q324 0 324 -350v-76zM512 334v75q0 112 -34.5 158.5t-105.5 46.5q-69 0 -104 -46.5t-35 -158.5v-75q0 -113 35 -159.5t104 -46.5q70 0 105 46.5t35 159.5z" />
    <glyph glyph-name="P" unicode="P" horiz-adv-x="691" 
d="M660 500q0 -75 -26 -125.5t-75 -76t-103 -35t-127 -9.5q-47 0 -76 1v-255h-180v743q123 9 238 9q63 0 111 -5.5t94.5 -21t76.5 -41.5t48.5 -70t18.5 -104v-10zM479 500v10q-1 61 -36.5 81.5t-118.5 20.5q-12 0 -36.5 -0.5t-34.5 -0.5v-216h71q83 0 119 22t36 83z" />
    <glyph glyph-name="Q" unicode="Q" horiz-adv-x="745" 
d="M696 331q0 -154 -62.5 -237.5t-176.5 -102.5v-35q0 -23 10 -29.5t47 -6.5h82v-102q-62 -17 -148 -17q-81 0 -122.5 32.5t-41.5 118.5v40q-235 41 -235 339v79q0 349 323 349q324 0 324 -349v-79zM512 331v80q0 111 -35 157t-105 46q-69 0 -104 -46t-35 -157v-80
q0 -111 35 -157t104 -46q70 0 105 46t35 157z" />
    <glyph glyph-name="R" unicode="R" horiz-adv-x="718" 
d="M706 0h-189l-152 265h-112v-265h-180v743q166 9 240 9q61 0 108 -5t93.5 -20.5t76.5 -41.5t48.5 -70t18.5 -103v-7q0 -148 -118 -205zM477 502v7q0 61 -36 82t-122 21q-42 0 -66 -1v-216h68q85 0 120.5 23.5t35.5 83.5z" />
    <glyph glyph-name="S" unicode="S" horiz-adv-x="646" 
d="M601 209q0 -113 -73.5 -169.5t-211.5 -56.5q-155 0 -251 24v122q154 -12 230 -12q63 0 91 19.5t28 61.5q0 31 -17.5 48.5t-70.5 40.5l-108 46q-87 37 -129.5 85.5t-42.5 135.5q0 108 72.5 156.5t217.5 48.5q117 0 227 -25v-120q-138 12 -217 12q-60 0 -88 -14.5
t-28 -51.5q0 -28 16.5 -44t67.5 -37l105 -43q96 -40 139 -91t43 -136z" />
    <glyph glyph-name="T" unicode="T" horiz-adv-x="670" 
d="M644 607h-215v-607h-188v607h-215v136h618v-136z" />
    <glyph glyph-name="U" unicode="U" horiz-adv-x="763" 
d="M695 301q0 -158 -81 -238t-232 -80q-152 0 -233 80t-81 238v442h185v-437q0 -101 27.5 -141.5t101.5 -40.5t102 40.5t28 141.5v437h183v-442z" />
    <glyph glyph-name="V" unicode="V" horiz-adv-x="749" 
d="M721 743l-205 -743h-284l-204 743h191l129 -498q9 -38 26 -135h2q23 120 27 135l129 498h189z" />
    <glyph glyph-name="W" unicode="W" horiz-adv-x="995" 
d="M958 743l-124 -743h-227l-87 353q-6 26 -21 102h-3q-15 -76 -21 -102l-86 -353h-228l-124 743h186l61 -406q7 -50 18 -142h4q4 18 13.5 63.5t15.5 68.5l67 276h193l67 -278q13 -52 29 -130h4q5 54 17 142l62 406h184z" />
    <glyph glyph-name="X" unicode="X" horiz-adv-x="735" 
d="M711 0h-200l-160 238l-154 -238h-173l241 379l-237 364h199l156 -230l147 230h173l-235 -370z" />
    <glyph glyph-name="Y" unicode="Y" horiz-adv-x="706" 
d="M692 743l-248 -475v-268h-182v268l-248 475h191l100 -197q27 -58 47 -114h5q10 32 49 114l100 197h186z" />
    <glyph glyph-name="Z" unicode="Z" horiz-adv-x="658" 
d="M607 0h-556v142l331 462h-322v139h538v-144l-330 -460h339v-139z" />
    <glyph glyph-name="bracketleft" unicode="[" horiz-adv-x="437" 
d="M389 -202h-308v945h308v-130h-134v-686h134v-129z" />
    <glyph glyph-name="backslash" unicode="\" horiz-adv-x="511" 
d="M482 0h-176l-278 743h175z" />
    <glyph glyph-name="bracketright" unicode="]" horiz-adv-x="437" 
d="M355 -202h-308v129h134v686h-134v130h308v-945z" />
    <glyph glyph-name="asciicircum" unicode="^" horiz-adv-x="677" 
d="M619 428h-164l-117 249l-117 -249h-164l157 317h248z" />
    <glyph glyph-name="underscore" unicode="_" horiz-adv-x="612" 
d="M602 -138h-593v90h593v-90z" />
    <glyph glyph-name="grave" unicode="`" horiz-adv-x="485" 
d="M374 631h-162l-167 146h198z" />
    <glyph glyph-name="a" unicode="a" horiz-adv-x="609" 
d="M547 0h-159v37q-77 -52 -179 -52q-81 0 -124 41t-43 122v23q0 44 14 75.5t36.5 50t60.5 28.5t75.5 13t91.5 3h53v31q0 53 -19 68.5t-86 15.5q-93 0 -184 -10v104q32 12 94 23.5t126 11.5q133 0 188 -48.5t55 -164.5v-372zM379 123v128h-58q-64 0 -88.5 -14t-24.5 -60v-23
q0 -58 65 -58q60 0 106 27z" />
    <glyph glyph-name="b" unicode="b" horiz-adv-x="653" 
d="M606 256q0 -144 -70.5 -207.5t-216.5 -63.5q-104 0 -251 16v778h175v-214q49 21 116 21q127 0 187 -63.5t60 -196.5v-70zM433 257v70q0 72 -21 99t-77 27q-60 0 -94 -17v-315q54 -3 80 -3q62 0 87 29.5t25 109.5z" />
    <glyph glyph-name="c" unicode="c" horiz-adv-x="533" 
d="M492 7q-91 -22 -191 -22q-254 0 -254 268v64q0 136 62 202t192 66q100 0 191 -22v-119q-122 8 -158 8q-61 0 -87.5 -27.5t-26.5 -107.5v-64q0 -80 27 -108t87 -28q36 0 158 8v-118z" />
    <glyph glyph-name="d" unicode="d" horiz-adv-x="654" 
d="M585 0h-161v29q-71 -44 -161 -44q-104 0 -160 65t-56 197v70q0 144 66 206t193 62q47 0 105 -9v203h174v-779zM413 137v309q-50 8 -86 8q-57 0 -81.5 -27.5t-24.5 -109.5v-70q0 -72 21.5 -101t76.5 -29q46 0 94 20z" />
    <glyph glyph-name="e" unicode="e" horiz-adv-x="637" 
d="M594 238h-375v-8q0 -32 3.5 -50.5t16.5 -35t40.5 -23.5t72.5 -7q63 0 214 11v-115q-100 -25 -222 -25q-159 0 -228 63.5t-69 218.5v31q0 147 69 217t206 70q272 0 272 -300v-47zM423 333v8q0 56 -20.5 88t-81.5 32q-59 0 -80 -32.5t-21 -87.5v-8h203z" />
    <glyph glyph-name="f" unicode="f" horiz-adv-x="457" 
d="M426 446h-133v-446h-174v446l-95 9v115h95v47q0 90 40 134t133 44q71 0 135 -17v-98q-12 0 -39.5 1.5t-40.5 1.5q-35 0 -44.5 -13.5t-9.5 -54.5v-45h133v-124z" />
    <glyph glyph-name="g" unicode="g" horiz-adv-x="655" 
d="M587 -15q0 -101 -59.5 -151t-209.5 -50q-71 0 -141 8.5t-95 14.5v104q173 -8 222 -8q69 0 89 17.5t20 64.5v19q-51 -8 -91 -8q-135 0 -204 64t-69 201v58q0 138 72.5 202t231.5 64q108 0 234 -15v-585zM414 132v317q-28 5 -78 5q-65 0 -89.5 -31t-24.5 -104v-58
q0 -74 25.5 -104t87.5 -30q49 0 79 5z" />
    <glyph glyph-name="h" unicode="h" 
d="M606 0h-174v359q0 55 -16.5 75t-58.5 20q-57 0 -115 -27v-427h-174v779h174v-234q80 40 171 40q111 0 152 -57t41 -167v-361z" />
    <glyph glyph-name="i" unicode="i" horiz-adv-x="318" 
d="M246 0h-174v570h174v-570zM250 648h-181v131h181v-131z" />
    <glyph glyph-name="j" unicode="j" horiz-adv-x="318" 
d="M246 -35q0 -103 -41.5 -143t-142.5 -40q-66 0 -98 8v110q10 0 28 -0.5t28 -0.5q33 0 42.5 13t9.5 53v605h174v-605zM250 648h-181v131h181v-131z" />
    <glyph glyph-name="k" unicode="k" horiz-adv-x="624" 
d="M615 0h-197l-176 264v-264h-174v779h174v-461l179 252h186l-198 -274z" />
    <glyph glyph-name="l" unicode="l" horiz-adv-x="317" 
d="M246 0h-174v779h174v-779z" />
    <glyph glyph-name="m" unicode="m" horiz-adv-x="962" 
d="M897 0h-174v371q0 25 -1 36.5t-6.5 24.5t-18 18t-34.5 5q-43 0 -96 -28q3 -18 3 -56v-371h-174v371q0 24 -1 36.5t-6.5 25t-17 17.5t-31.5 5q-40 0 -98 -29v-426h-174v570h164v-45q76 60 172 60q95 0 135 -62q90 62 180 62q46 0 79 -11.5t51.5 -30t29.5 -47t14.5 -56.5
t3.5 -65v-375z" />
    <glyph glyph-name="n" unicode="n" horiz-adv-x="671" 
d="M606 0h-174v361q0 53 -14 73t-54 20q-45 0 -122 -32v-422h-174v570h164v-46q98 61 187 61q62 0 101.5 -16.5t57 -50.5t23 -68.5t5.5 -88.5v-361z" />
    <glyph glyph-name="o" unicode="o" horiz-adv-x="642" 
d="M595 253q0 -268 -275 -268q-273 0 -273 268v63q0 269 273 269q275 0 275 -269v-63zM421 253v63q0 75 -23.5 105.5t-77.5 30.5q-53 0 -76.5 -30.5t-23.5 -105.5v-63q0 -75 23.5 -105.5t76.5 -30.5q54 0 77.5 30.5t23.5 105.5z" />
    <glyph glyph-name="p" unicode="p" horiz-adv-x="654" 
d="M607 263q0 -149 -68 -213t-197 -64q-57 0 -100 9v-198h-174v773h161v-36q75 51 169 51q101 0 155 -63.5t54 -207.5v-51zM433 263v51q0 80 -21 109t-72 29q-46 0 -100 -24v-303q56 -9 86 -9q57 0 82 30t25 117z" />
    <glyph glyph-name="q" unicode="q" horiz-adv-x="652" 
d="M584 -203h-173v210q-56 -22 -124 -22q-125 0 -182.5 64t-57.5 208v48q0 158 70 219t222 61q100 0 245 -16v-772zM411 136v312q-36 4 -77 4q-65 0 -89.5 -27t-24.5 -121v-47q0 -80 18.5 -109.5t70.5 -29.5t102 18z" />
    <glyph glyph-name="r" unicode="r" horiz-adv-x="435" 
d="M418 439q-98 0 -176 -26v-413h-174v570h162v-47q68 62 188 62v-146z" />
    <glyph glyph-name="s" unicode="s" horiz-adv-x="543" 
d="M507 167q0 -92 -61.5 -136.5t-190.5 -44.5q-126 0 -204 22v106q7 0 41.5 -3t77 -5.5t76.5 -2.5q51 0 72 12t21 39q0 24 -16 35t-74 33l-46 17q-83 32 -122 74t-39 110q0 89 59 125.5t176 36.5q127 0 202 -23v-109q-113 10 -186 10q-48 0 -66 -6t-18 -30q0 -21 14.5 -31
t63.5 -29l50 -18q95 -35 132.5 -75t37.5 -107z" />
    <glyph glyph-name="t" unicode="t" horiz-adv-x="452" 
d="M421 1q-60 -16 -127 -16q-92 0 -133 40t-41 134v287l-99 9v115h99v144h174v-144h128v-124h-128v-285q0 -37 7.5 -47t39.5 -10q52 0 80 4v-107z" />
    <glyph glyph-name="u" unicode="u" 
d="M605 0h-164v46q-105 -61 -200 -61q-45 0 -78 13t-51 32.5t-28.5 50.5t-13.5 60t-3 68v361h174v-361q0 -53 13.5 -73t54.5 -20q43 0 122 32v422h174v-570z" />
    <glyph glyph-name="v" unicode="v" horiz-adv-x="620" 
d="M602 570l-168 -570h-248l-168 570h179l79 -310q7 -29 18.5 -81.5t16.5 -72.5q29 135 34 154l78 310h179z" />
    <glyph glyph-name="w" unicode="w" horiz-adv-x="936" 
d="M908 570l-120 -570h-215l-76 244q-20 67 -27 114h-4q-7 -50 -28 -114l-76 -244h-214l-120 570h176l52 -282q16 -88 18 -136h4q26 106 35 136l63 199h184l63 -199q9 -27 22 -80t14 -56h4q3 66 17 137l52 281h176z" />
    <glyph glyph-name="x" unicode="x" horiz-adv-x="615" 
d="M215 570l102 -155l101 155h178l-192 -285l189 -285h-193l-108 163l-106 -163h-178l198 293l-184 277h193z" />
    <glyph glyph-name="y" unicode="y" horiz-adv-x="637" 
d="M616 570l-181 -574q-37 -117 -88 -164.5t-150 -47.5q-98 0 -161 13v111q49 -2 108 -2q32 0 49 15t28 54l9 31l-207 564h187l84 -293q7 -25 18.5 -76t17.5 -75q18 92 33 152l76 292h177z" />
    <glyph glyph-name="z" unicode="z" horiz-adv-x="548" 
d="M505 0h-465v128l269 317h-260v125h455v-130l-267 -317h268v-123z" />
    <glyph glyph-name="braceleft" unicode="{" horiz-adv-x="462" 
d="M414 -203h-64q-144 0 -194.5 39t-50.5 148v133q0 45 -12.5 65t-47.5 41v95q35 20 47.5 40.5t12.5 64.5v133q0 109 50.5 148t194.5 39h63v-130h-61q-48 0 -60.5 -9.5t-12.5 -47.5v-133q0 -61 -18 -94t-62 -59q44 -27 62 -59.5t18 -93.5v-133q0 -38 12.5 -48t60.5 -10h62
v-129z" />
    <glyph glyph-name="bar" unicode="|" horiz-adv-x="336" 
d="M254 -203h-173v946h173v-946z" />
    <glyph glyph-name="braceright" unicode="}" horiz-adv-x="462" 
d="M417 223q-34 -21 -46.5 -41t-12.5 -65v-133q0 -109 -50.5 -148t-195.5 -39h-63v129h61q49 0 61 10t12 48v133q0 61 18 93.5t62 59.5q-44 26 -62 59t-18 94v133q0 38 -12 47.5t-61 9.5h-61v130h63q145 0 195.5 -39t50.5 -148v-133q0 -44 12.5 -64.5t46.5 -40.5v-95z" />
    <glyph glyph-name="asciitilde" unicode="~" horiz-adv-x="677" 
d="M602 488q0 -86 -31.5 -126.5t-100.5 -40.5q-70 0 -125 32l-61 37q-37 22 -55 22q-21 0 -28.5 -12.5t-7.5 -40.5v-32h-120v32q0 168 141 168q52 0 112 -36l60 -36q37 -20 62 -20q22 0 28.5 12.5t6.5 40.5v32h119v-32z" />
    <glyph glyph-name="uni00A0" unicode="&#xa0;" horiz-adv-x="202" 
 />
    <glyph glyph-name="exclamdown" unicode="&#xa1;" horiz-adv-x="330" 
d="M262 -206h-194l17 557h160zM254 574v-165h-179v165h179z" />
    <glyph glyph-name="cent" unicode="&#xa2;" horiz-adv-x="542" 
d="M493 563v-118q-80 7 -157 7q-62 0 -88 -27.5t-26 -107.5v-64q0 -80 26.5 -108t87.5 -28q48 0 157 7v-117q-45 -14 -122 -19v-109h-144v114q-178 35 -178 260v64q0 223 178 260v113h144v-109q69 -5 122 -18z" />
    <glyph glyph-name="sterling" unicode="&#xa3;" horiz-adv-x="659" 
d="M606 739v-125q-140 8 -188 8q-71 0 -90 -24t-19 -100v-55h208v-121h-208v-101q0 -47 -26 -88h323v-133h-525v109q46 45 46 112v101h-75v121h75v54q0 139 59.5 201t202.5 62q123 0 217 -21z" />
    <glyph glyph-name="currency" unicode="&#xa4;" horiz-adv-x="665" 
d="M606 183l-77 -75l-80 77q-54 -31 -115 -31q-65 0 -117 32l-82 -79l-76 74l81 79q-32 52 -32 114q0 63 32 112l-82 80l77 73l81 -78q53 31 118 31q67 0 116 -31l80 76l76 -74l-79 -77q33 -55 33 -113q0 -61 -33 -114zM456 374q0 49 -36.5 84t-85.5 35q-50 0 -86.5 -35
t-36.5 -84q0 -50 36.5 -85t86.5 -35q49 0 85.5 35t36.5 85z" />
    <glyph glyph-name="yen" unicode="&#xa5;" horiz-adv-x="748" 
d="M700 205h-237v-205h-181v205h-237v99h220l-49 88h-171v100h119l-133 251h193l101 -197q27 -58 47 -114h4q14 39 49 114l100 197h189l-133 -251h119v-100h-171l-50 -88h221v-99z" />
    <glyph glyph-name="brokenbar" unicode="&#xa6;" horiz-adv-x="336" 
d="M254 353h-173v389h173v-389zM254 187v-390h-173v390h173z" />
    <glyph glyph-name="section" unicode="&#xa7;" horiz-adv-x="687" 
d="M84 -195v123q154 -11 234 -11q65 0 90 19.5t25 61.5q0 36 -19 56.5t-85 46.5l-113 44q-77 28 -114 75t-37 121q0 65 32 113q-31 44 -31 112q0 191 286 191q133 0 242 -25v-120q-159 12 -232 12q-63 0 -88.5 -15.5t-25.5 -51.5q0 -32 16.5 -51.5t66.5 -38.5l112 -43
q100 -36 139.5 -84t39.5 -122q0 -62 -34 -112q33 -45 33 -107q0 -217 -286 -217q-126 0 -251 23zM477 172v26q0 47 -15.5 68t-74.5 43l-112 42q-52 20 -76 48v-34q0 -51 14 -70t72 -40l114 -43q33 -11 78 -40z" />
    <glyph glyph-name="dieresis" unicode="&#xa8;" horiz-adv-x="508" 
d="M451 645h-139v127h139v-127zM197 772v-127h-140v127h140z" />
    <glyph glyph-name="copyright" unicode="&#xa9;" horiz-adv-x="859" 
d="M799 374q0 -181 -102 -281t-269 -100t-270 100t-103 281q0 180 103 280.5t270 100.5t269 -100t102 -281zM710 374q0 141 -77.5 220.5t-204.5 79.5q-128 0 -205 -79.5t-77 -220.5t77.5 -221t204.5 -80t204.5 80t77.5 221zM438 158q-97 0 -145.5 49t-48.5 141v52
q0 190 194 190q76 0 115 -13v-84q-63 6 -103 6q-49 0 -67.5 -21.5t-18.5 -77.5v-52q0 -55 19 -77t67 -22q50 0 103 5v-83q-39 -13 -115 -13z" />
    <glyph glyph-name="ordfeminine" unicode="&#xaa;" horiz-adv-x="458" 
d="M388 412h-113v25q-51 -34 -118 -34q-52 0 -81 27t-29 77v13q0 29 10 49t25 31.5t41.5 17.5t49.5 7.5t59 1.5h32v17q0 31 -12 40.5t-54 9.5q-41 0 -123 -7v71q62 23 150 23t125.5 -31t37.5 -106v-232zM269 498v69h-36q-40 0 -55 -7.5t-15 -34.5v-13q0 -13 6 -20t14 -8.5
t21 -1.5q40 0 65 16z" />
    <glyph glyph-name="guillemotleft" unicode="&#xab;" horiz-adv-x="773" 
d="M726 70h-180l-154 222l154 221h180l-150 -221zM230 292l150 -222h-180l-154 222l154 221h180z" />
    <glyph glyph-name="logicalnot" unicode="&#xac;" horiz-adv-x="677" 
d="M582 183h-136v271h-352v132h488v-403z" />
    <glyph glyph-name="uni00AD" unicode="&#xad;" horiz-adv-x="376" 
d="M318 234h-261v121h261v-121z" />
    <glyph glyph-name="registered" unicode="&#xae;" horiz-adv-x="668" 
d="M610 474q0 -133 -76 -212.5t-201 -79.5q-126 0 -202 79.5t-76 212.5q0 134 76 213.5t202 79.5q125 0 201 -79.5t76 -213.5zM534 474q0 104 -54 164t-147 60q-94 0 -148.5 -60t-54.5 -164q0 -105 54 -165t149 -60q93 0 147 60t54 165zM475 329h-88l-64 107h-29v-107h-78
v303q42 3 98 3q67 0 103.5 -20.5t36.5 -77.5v-4q0 -63 -54 -83zM376 534v3q0 23 -13.5 30.5t-45.5 7.5h-23v-83h24q31 0 44.5 8.5t13.5 33.5z" />
    <glyph glyph-name="macron" unicode="&#xaf;" horiz-adv-x="503" 
d="M456 653h-409v99h409v-99z" />
    <glyph glyph-name="degree" unicode="&#xb0;" horiz-adv-x="432" 
d="M387 595q0 -68 -50 -116t-121 -48t-121 48t-50 116t50 116.5t121 48.5t121 -48.5t50 -116.5zM298 595q0 35 -24 57.5t-59 22.5q-34 0 -57.5 -22.5t-23.5 -57.5q0 -34 23.5 -56.5t57.5 -22.5q35 0 59 22.5t24 56.5z" />
    <glyph glyph-name="plusminus" unicode="&#xb1;" horiz-adv-x="677" 
d="M598 0h-520v107h520v-107zM600 370h-195v-186h-132v186h-197v131h197v185h132v-185h195v-131z" />
    <glyph glyph-name="two.superior" unicode="&#xb2;" horiz-adv-x="454" 
d="M57 702v75q65 18 165 18q95 0 139 -28.5t44 -90.5q0 -47 -29 -78.5t-102 -64.5q-64 -29 -81 -46.5t-17 -53.5v-4h220v-91h-346v55q0 81 30.5 123t109.5 81q57 28 71 40.5t14 34.5q0 20 -16.5 28.5t-58.5 8.5q-66 0 -143 -7z" />
    <glyph glyph-name="three.superior" unicode="&#xb3;" horiz-adv-x="450" 
d="M212 328q-45 0 -93.5 6.5t-66.5 13.5v74q66 -6 145 -6q42 0 59 10.5t17 42.5v9q0 25 -13 36t-54 11h-126v81h127q40 0 53 12t13 37v6q0 27 -16 37t-60 10q-9 0 -145 -7v74q56 20 160 20q94 0 141.5 -28t47.5 -96v-6q0 -71 -55 -98q55 -25 55 -95v-9q0 -72 -45.5 -103.5
t-143.5 -31.5z" />
    <glyph glyph-name="acute" unicode="&#xb4;" horiz-adv-x="485" 
d="M433 777l-167 -146h-163l132 146h198z" />
    <glyph glyph-name="mu" unicode="&#xb5;" horiz-adv-x="711" 
d="M620 0h-164v46q-82 -44 -147 -51q-29 -1 -53 3v-200h-174v772h174v-361q0 -53 13.5 -73t54.5 -20q43 0 122 32v422h174v-570z" />
    <glyph glyph-name="paragraph" unicode="&#xb6;" horiz-adv-x="753" 
d="M522 -196h-107v440h-49q-70 0 -123 11t-97.5 37t-68 76t-23.5 121v10q0 72 23.5 121.5t68.5 75.5t99 36.5t126 10.5h320v-939h-106v834h-64z" />
    <glyph glyph-name="periodcentered" unicode="&#xb7;" horiz-adv-x="302" 
d="M233 286h-165v165h165v-165z" />
    <glyph glyph-name="cedilla" unicode="&#xb8;" horiz-adv-x="454" 
d="M347 -63l-131 -140h-159l105 140h185z" />
    <glyph glyph-name="one.superior" unicode="&#xb9;" horiz-adv-x="407" 
d="M353 338h-291v85l80 4v246l-81 -26v96l118 44h93v-360l81 -4v-85z" />
    <glyph glyph-name="ordmasculine" unicode="&#xba;" horiz-adv-x="463" 
d="M415 576q0 -173 -184 -173t-184 173v32q0 173 184 173t184 -173v-32zM293 576v32q0 46 -14 63.5t-48 17.5q-33 0 -47.5 -18t-14.5 -63v-32q0 -45 14 -63t48 -18t48 18t14 63z" />
    <glyph glyph-name="guillemotright" unicode="&#xbb;" horiz-adv-x="773" 
d="M727 292l-154 -222h-179l148 222l-148 221h179zM226 513l155 -221l-155 -222h-179l150 222l-150 221h179z" />
    <glyph glyph-name="onequarter" unicode="&#xbc;" horiz-adv-x="1002" 
d="M843 745l-496 -745h-148l497 745h147zM353 302h-291v85l80 4v246l-81 -26v96l118 44h93v-360l81 -4v-85zM895 0h-128v98h-213v82l236 267h105v-265h60v-84h-60v-98zM774 182v136l-119 -136h119z" />
    <glyph glyph-name="onehalf" unicode="&#xbd;" horiz-adv-x="1093" 
d="M843 745l-496 -745h-148l497 745h147zM353 302h-291v85l80 4v246l-81 -26v96l118 44h93v-360l81 -4v-85zM704 364v75q65 18 165 18q95 0 139 -28.5t44 -90.5q0 -47 -29 -78.5t-102 -64.5q-64 -29 -81 -46.5t-17 -53.5v-4h220v-91h-346v55q0 81 30.5 123t109.5 81
q57 28 71 40.5t14 34.5q0 20 -16.5 28.5t-58.5 8.5q-66 0 -143 -7z" />
    <glyph glyph-name="threequarters" unicode="&#xbe;" horiz-adv-x="1061" 
d="M878 745l-498 -745h-147l497 745h148zM212 292q-45 0 -93.5 6.5t-66.5 13.5v74q66 -6 145 -6q42 0 59 10.5t17 42.5q0 31 -13 43.5t-54 12.5h-126v81h127q40 0 53 13t13 42q0 27 -16 37t-60 10q-9 0 -145 -7v74q56 20 160 20q95 0 142 -29t47 -101q0 -71 -55 -98
q55 -25 55 -95q0 -78 -45 -111t-144 -33zM950 0h-128v98h-213v82l236 267h105v-265h60v-84h-60v-98zM829 182v136l-119 -136h119z" />
    <glyph glyph-name="questiondown" unicode="&#xbf;" horiz-adv-x="541" 
d="M509 -185q-87 -31 -217 -31q-119 0 -178 40.5t-59 126.5v7q0 51 22.5 93.5t80.5 97.5q68 66 86.5 99.5t18.5 77.5v26h151v-26q0 -70 -13.5 -112t-62.5 -94q-47 -51 -63 -78.5t-16 -55.5v-6q0 -33 22 -45.5t74 -12.5q56 0 154 8v-115zM425 412h-175v164h175v-164z" />
    <glyph glyph-name="Agrave" unicode="&#xc0;" horiz-adv-x="748" 
d="M727 0h-196l-53 187h-211l-54 -187h-192l207 743h290zM453 321l-54 197q-14 54 -23 114h-7q-11 -72 -23 -114l-53 -197h160zM489 789h-162l-167 146h198z" />
    <glyph glyph-name="Aacute" unicode="&#xc1;" horiz-adv-x="748" 
d="M727 0h-196l-53 187h-211l-54 -187h-192l207 743h290zM453 321l-54 197q-14 54 -23 114h-7q-11 -72 -23 -114l-53 -197h160zM600 935l-166 -146h-163l132 146h197z" />
    <glyph glyph-name="Acircumflex" unicode="&#xc2;" horiz-adv-x="748" 
d="M727 0h-196l-53 187h-211l-54 -187h-192l207 743h290zM453 321l-54 197q-14 54 -23 114h-7q-11 -72 -23 -114l-53 -197h160zM612 789h-153l-86 82l-87 -82h-152l135 146h208z" />
    <glyph glyph-name="Atilde" unicode="&#xc3;" horiz-adv-x="748" 
d="M727 0h-196l-53 187h-211l-54 -187h-192l207 743h290zM453 321l-54 197q-14 54 -23 114h-7q-11 -72 -23 -114l-53 -197h160zM600 924q0 -139 -118 -139q-49 0 -105 30l-47 26q-36 21 -54 21t-24.5 -11.5t-6.5 -36.5v-24h-99v24q0 139 123 139q45 0 98 -29l48 -26
q39 -21 57 -21t24.5 11t6.5 36v24h97v-24z" />
    <glyph glyph-name="Adieresis" unicode="&#xc4;" horiz-adv-x="748" 
d="M727 0h-196l-53 187h-211l-54 -187h-192l207 743h290zM453 321l-54 197q-12 42 -23 114h-7q-11 -72 -23 -114l-53 -197h160zM570 800h-140v127h140v-127zM316 927v-127h-141v127h141z" />
    <glyph glyph-name="Aring" unicode="&#xc5;" horiz-adv-x="748" 
d="M727 0h-196l-53 187h-211l-54 -187h-192l207 743h290zM453 321l-54 197q-14 54 -23 114h-7q-11 -72 -23 -114l-53 -197h160zM516 896q0 -58 -39 -90t-102 -32q-64 0 -104 32t-40 90t40 90t104 32q63 0 102 -32t39 -90zM430 896q0 48 -55 48q-56 0 -56 -48t56 -48
q55 0 55 48z" />
    <glyph glyph-name="AE" unicode="&#xc6;" horiz-adv-x="1031" 
d="M984 0h-506v187h-195l-53 -187h-190l201 743h743v-136h-319v-162h298v-129h-298v-181h319v-135zM478 320v310h-90q-5 -17 -12.5 -54.5t-12.5 -54.5l-54 -201h169z" />
    <glyph glyph-name="Ccedilla" unicode="&#xc7;" horiz-adv-x="616" 
d="M584 3q-29 -7 -92.5 -13.5t-108.5 -6.5q-169 0 -251.5 77t-82.5 269v86q0 192 82.5 268t251.5 76q45 0 109 -6.5t92 -14.5v-133q-113 9 -183 9q-87 0 -125 -41.5t-38 -157.5v-86q0 -117 38 -159t126 -42q82 0 182 8v-133zM458 -63l-132 -140h-159l105 140h186z" />
    <glyph glyph-name="Egrave" unicode="&#xc8;" horiz-adv-x="628" 
d="M579 0h-506v743h506v-136h-319v-162h298v-129h-298v-181h319v-135zM432 789h-162l-167 146h198z" />
    <glyph glyph-name="Eacute" unicode="&#xc9;" horiz-adv-x="628" 
d="M579 0h-506v743h506v-136h-319v-162h298v-129h-298v-181h319v-135zM560 935l-166 -146h-163l132 146h197z" />
    <glyph glyph-name="Ecircumflex" unicode="&#xca;" horiz-adv-x="628" 
d="M579 0h-506v743h506v-136h-319v-162h298v-129h-298v-181h319v-135zM566 789h-152l-87 82l-86 -82h-152l135 146h208z" />
    <glyph glyph-name="Edieresis" unicode="&#xcb;" horiz-adv-x="628" 
d="M579 0h-506v743h506v-136h-319v-162h298v-129h-298v-181h319v-135zM525 800h-140v127h140v-127zM271 927v-127h-141v127h141z" />
    <glyph glyph-name="Igrave" unicode="&#xcc;" horiz-adv-x="333" 
d="M260 0h-187v743h187v-743zM292 789h-163l-166 146h197z" />
    <glyph glyph-name="Iacute" unicode="&#xcd;" horiz-adv-x="333" 
d="M260 0h-187v743h187v-743zM393 934l-167 -146h-162l131 146h198z" />
    <glyph glyph-name="Icircumflex" unicode="&#xce;" horiz-adv-x="333" 
d="M260 0h-187v743h187v-743zM407 789h-153l-86 82l-87 -82h-152l135 146h208z" />
    <glyph glyph-name="Idieresis" unicode="&#xcf;" horiz-adv-x="333" 
d="M260 0h-187v743h187v-743zM109 927v-127h-140v127h140zM363 800h-139v127h139v-127z" />
    <glyph glyph-name="Eth" unicode="&#xd0;" horiz-adv-x="738" 
d="M689 335q0 -180 -85 -262t-275 -82q-145 0 -256 9v318h-50v126h50v299q111 9 256 9q187 0 273.5 -82t86.5 -258v-77zM505 335v77q0 116 -39 157.5t-135 41.5h-76v-167h110v-126h-110v-187h76q96 0 135 44t39 160z" />
    <glyph glyph-name="Ntilde" unicode="&#xd1;" horiz-adv-x="776" 
d="M703 0h-194l-215 386q-29 52 -52 102h-2q3 -117 3 -120v-368h-170v743h191l217 -379q27 -49 53 -105h2q-3 52 -3 127v357h170v-743zM616 923q0 -139 -119 -139q-48 0 -105 30l-47 26q-34 20 -54 20q-31 0 -31 -47v-25h-99v25q0 72 33.5 105.5t89.5 33.5q42 0 99 -29
l47 -26q38 -21 57 -21q18 0 24.5 11t6.5 36v24h98v-24z" />
    <glyph glyph-name="Ograve" unicode="&#xd2;" horiz-adv-x="745" 
d="M696 333q0 -350 -324 -350q-323 0 -323 350v76q0 350 323 350q324 0 324 -350v-76zM512 334v75q0 112 -34.5 158.5t-105.5 46.5q-69 0 -104 -46.5t-35 -158.5v-75q0 -113 35 -159.5t104 -46.5q70 0 105 46.5t35 159.5zM490 789h-163l-166 146h197z" />
    <glyph glyph-name="Oacute" unicode="&#xd3;" horiz-adv-x="745" 
d="M696 333q0 -350 -324 -350q-323 0 -323 350v76q0 350 323 350q324 0 324 -350v-76zM512 334v75q0 112 -34.5 158.5t-105.5 46.5q-69 0 -104 -46.5t-35 -158.5v-75q0 -113 35 -159.5t104 -46.5q70 0 105 46.5t35 159.5zM586 935l-166 -146h-163l132 146h197z" />
    <glyph glyph-name="Ocircumflex" unicode="&#xd4;" horiz-adv-x="745" 
d="M696 333q0 -350 -324 -350q-323 0 -323 350v76q0 350 323 350q324 0 324 -350v-76zM512 334v75q0 112 -34.5 158.5t-105.5 46.5q-69 0 -104 -46.5t-35 -158.5v-75q0 -113 35 -159.5t104 -46.5q70 0 105 46.5t35 159.5zM611 788h-152l-87 82l-86 -82h-153l135 146h209z
" />
    <glyph glyph-name="Otilde" unicode="&#xd5;" horiz-adv-x="745" 
d="M696 333q0 -350 -324 -350q-323 0 -323 350v76q0 350 323 350q324 0 324 -350v-76zM512 334v75q0 112 -34.5 158.5t-105.5 46.5q-69 0 -104 -46.5t-35 -158.5v-75q0 -113 35 -159.5t104 -46.5q70 0 105 46.5t35 159.5zM599 923q0 -139 -118 -139q-49 0 -105 30l-47 26
q-34 20 -54 20q-18 0 -24.5 -11t-6.5 -36v-25h-99v25q0 139 123 139q43 0 98 -29l48 -26q39 -21 57 -21t24.5 11t6.5 36v24h97v-24z" />
    <glyph glyph-name="Odieresis" unicode="&#xd6;" horiz-adv-x="745" 
d="M696 333q0 -350 -324 -350q-323 0 -323 350v76q0 350 323 350q324 0 324 -350v-76zM512 334v75q0 112 -34.5 158.5t-105.5 46.5q-69 0 -104 -46.5t-35 -158.5v-75q0 -113 35 -159.5t104 -46.5q70 0 105 46.5t35 159.5zM570 801h-140v127h140v-127zM316 928v-127h-141v127
h141z" />
    <glyph glyph-name="multiply" unicode="&#xd7;" horiz-adv-x="677" 
d="M575 243l-90 -89l-146 141l-148 -143l-90 89l148 144l-148 142l89 89l149 -143l147 143l90 -90l-148 -142z" />
    <glyph glyph-name="Oslash" unicode="&#xd8;" horiz-adv-x="745" 
d="M696 333q0 -350 -324 -350q-113 0 -189 44l-20 -27h-137l78 103q-55 86 -55 230v76q0 350 323 350q117 0 192 -46l23 30h138l-82 -109q53 -84 53 -225v-76zM233 334q0 -32 3 -57l229 304q-33 33 -93 33q-69 0 -104 -46.5t-35 -158.5v-75zM512 334v75q0 19 -2 49
l-228 -300q31 -30 90 -30q70 0 105 46.5t35 159.5z" />
    <glyph glyph-name="Ugrave" unicode="&#xd9;" horiz-adv-x="763" 
d="M695 301q0 -158 -81 -238t-232 -80q-152 0 -233 80t-81 238v442h185v-437q0 -101 27.5 -141.5t101.5 -40.5t102 40.5t28 141.5v437h183v-442zM484 789h-162l-167 146h198z" />
    <glyph glyph-name="Uacute" unicode="&#xda;" horiz-adv-x="763" 
d="M695 301q0 -158 -81 -238t-232 -80q-152 0 -233 80t-81 238v442h185v-437q0 -101 27.5 -141.5t101.5 -40.5t102 40.5t28 141.5v437h183v-442zM613 935l-166 -145h-163l132 145h197z" />
    <glyph glyph-name="Ucircumflex" unicode="&#xdb;" horiz-adv-x="763" 
d="M695 301q0 -158 -81 -238t-232 -80q-152 0 -233 80t-81 238v442h185v-437q0 -101 27.5 -141.5t101.5 -40.5t102 40.5t28 141.5v437h183v-442zM621 789h-152l-87 82l-86 -82h-152l135 146h208z" />
    <glyph glyph-name="Udieresis" unicode="&#xdc;" horiz-adv-x="763" 
d="M695 301q0 -158 -81 -238t-232 -80q-152 0 -233 80t-81 238v442h185v-437q0 -101 27.5 -141.5t101.5 -40.5t102 40.5t28 141.5v437h183v-442zM578 800h-140v127h140v-127zM324 927v-127h-140v127h140z" />
    <glyph glyph-name="Yacute" unicode="&#xdd;" horiz-adv-x="706" 
d="M692 743l-248 -475v-268h-182v268l-248 475h191l100 -197q27 -58 47 -114h5q10 32 49 114l100 197h186zM587 935l-167 -146h-163l132 146h198z" />
    <glyph glyph-name="Thorn" unicode="&#xde;" horiz-adv-x="697" 
d="M253 0h-180v754h180v-112q29 1 79 1q59 0 105 -5.5t90.5 -21t73.5 -42t47 -70.5t18 -103v-12q0 -59 -18 -103.5t-47.5 -71t-73.5 -42.5t-89.5 -21.5t-102.5 -5.5q-47 0 -82 1v-146zM485 390v12q-1 60 -36.5 81t-118.5 21q-15 0 -42 -0.5t-35 -0.5v-216q19 -1 78 -1
q82 0 118 22t36 82z" />
    <glyph glyph-name="germandbls" unicode="&#xdf;" horiz-adv-x="704" 
d="M654 217q0 -107 -61.5 -167.5t-186.5 -60.5q-38 0 -91 7v124h43q66 0 95 25.5t29 80.5v17q0 101 -127 101h-40v110h40q63 0 90 25t27 74v9q0 44 -24.5 68t-86.5 24q-65 0 -91 -32t-26 -113v-509h-174v509q0 137 68 207.5t227 70.5q145 0 208.5 -60.5t63.5 -154.5v-10
q0 -112 -91 -157q53 -24 80.5 -70.5t27.5 -99.5v-18z" />
    <glyph glyph-name="agrave" unicode="&#xe0;" horiz-adv-x="609" 
d="M547 0h-159v37q-77 -52 -179 -52q-81 0 -124 41t-43 122v23q0 44 14 75.5t36.5 50t60.5 28.5t75.5 13t91.5 3h53v31q0 53 -19 68.5t-86 15.5q-93 0 -184 -10v104q32 12 94 23.5t126 11.5q133 0 188 -48.5t55 -164.5v-372zM379 123v128h-58q-64 0 -88.5 -14t-24.5 -60v-23
q0 -58 65 -58q60 0 106 27zM428 631h-162l-167 146h198z" />
    <glyph glyph-name="aacute" unicode="&#xe1;" horiz-adv-x="609" 
d="M547 0h-159v37q-77 -52 -179 -52q-81 0 -124 41t-43 122v23q0 44 14 75.5t36.5 50t60.5 28.5t75.5 13t91.5 3h53v31q0 53 -19 68.5t-86 15.5q-93 0 -184 -10v104q32 12 94 23.5t126 11.5q133 0 188 -48.5t55 -164.5v-372zM379 123v128h-58q-64 0 -88.5 -14t-24.5 -60v-23
q0 -58 65 -58q60 0 106 27zM541 777l-167 -146h-162l131 146h198z" />
    <glyph glyph-name="acircumflex" unicode="&#xe2;" horiz-adv-x="609" 
d="M547 0h-159v37q-77 -52 -179 -52q-81 0 -124 41t-43 122v23q0 44 14 75.5t36.5 50t60.5 28.5t75.5 13t91.5 3h53v31q0 53 -19 68.5t-86 15.5q-93 0 -184 -10v104q32 12 94 23.5t126 11.5q133 0 188 -48.5t55 -164.5v-372zM379 123v128h-58q-64 0 -88.5 -14t-24.5 -60v-23
q0 -58 65 -58q60 0 106 27zM546 631h-153l-86 82l-87 -82h-152l135 146h208z" />
    <glyph glyph-name="atilde" unicode="&#xe3;" horiz-adv-x="609" 
d="M547 0h-159v37q-77 -52 -179 -52q-81 0 -124 41t-43 122v23q0 44 14 75.5t36.5 50t60.5 28.5t75.5 13t91.5 3h53v31q0 53 -19 68.5t-86 15.5q-93 0 -184 -10v104q32 12 94 23.5t126 11.5q133 0 188 -48.5t55 -164.5v-372zM379 123v128h-58q-64 0 -88.5 -14t-24.5 -60v-23
q0 -58 65 -58q60 0 106 27zM534 766q0 -139 -119 -139q-48 0 -105 30l-47 26q-36 21 -54 21q-31 0 -31 -48v-24h-98v24q0 72 33 105.5t89 33.5q45 0 99 -29l48 -26q37 -21 57 -21q17 0 23.5 11t6.5 36v24h98v-24z" />
    <glyph glyph-name="adieresis" unicode="&#xe4;" horiz-adv-x="609" 
d="M547 0h-159v37q-77 -52 -179 -52q-81 0 -124 41t-43 122v23q0 44 14 75.5t36.5 50t60.5 28.5t75.5 13t91.5 3h53v31q0 53 -19 68.5t-86 15.5q-93 0 -184 -10v104q32 12 94 23.5t126 11.5q133 0 188 -48.5t55 -164.5v-372zM379 123v128h-58q-64 0 -88.5 -14t-24.5 -60v-23
q0 -58 65 -58q60 0 106 27zM504 645h-139v127h139v-127zM250 772v-127h-140v127h140z" />
    <glyph glyph-name="aring" unicode="&#xe5;" horiz-adv-x="609" 
d="M547 0h-159v37q-77 -52 -179 -52q-81 0 -124 41t-43 122v23q0 44 14 75.5t36.5 50t60.5 28.5t75.5 13t91.5 3h53v31q0 53 -19 68.5t-86 15.5q-93 0 -184 -10v104q32 12 94 23.5t126 11.5q133 0 188 -48.5t55 -164.5v-372zM379 123v128h-58q-64 0 -88.5 -14t-24.5 -60v-23
q0 -58 65 -58q60 0 106 27zM455 736q0 -58 -39 -90t-102 -32q-64 0 -104 32t-40 90t40 90t104 32q63 0 102 -32t39 -90zM369 736q0 48 -55 48q-56 0 -56 -48t56 -48q55 0 55 48z" />
    <glyph glyph-name="ae" unicode="&#xe6;" horiz-adv-x="963" 
d="M893 9q-94 -23 -231 -23q-157 0 -220 67q-97 -67 -233 -67q-167 0 -167 162v23q0 44 14 75.5t36.5 50t60.5 28.5t75.5 13t91.5 3h53v31q0 51 -19 67.5t-85 16.5q-80 0 -185 -9v103q32 12 93.5 23.5t126.5 11.5q124 0 175 -45q64 44 169 44q62 0 110 -16t78 -42
t49.5 -63.5t27 -77t7.5 -85.5v-62h-374v-8q0 -65 23.5 -93t108.5 -28q124 0 215 11v-111zM750 333v8q0 56 -20.5 88t-81.5 32q-59 0 -80 -32t-21 -88v-8h203zM379 123v128h-58q-64 0 -88.5 -14t-24.5 -60v-23q0 -58 65 -58q57 0 106 27z" />
    <glyph glyph-name="ccedilla" unicode="&#xe7;" horiz-adv-x="533" 
d="M492 7q-91 -22 -191 -22q-254 0 -254 268v64q0 136 62 202t192 66q100 0 191 -22v-119q-122 8 -158 8q-61 0 -87.5 -27.5t-26.5 -107.5v-64q0 -80 27 -108t87 -28q36 0 158 8v-118zM399 -63l-131 -140h-159l105 140h185z" />
    <glyph glyph-name="egrave" unicode="&#xe8;" horiz-adv-x="637" 
d="M594 238h-375v-8q0 -32 3.5 -50.5t16.5 -35t40.5 -23.5t72.5 -7q63 0 214 11v-115q-100 -25 -222 -25q-159 0 -228 63.5t-69 218.5v31q0 147 69 217t206 70q272 0 272 -300v-47zM423 333v8q0 56 -20.5 88t-81.5 32q-59 0 -80 -32.5t-21 -87.5v-8h203zM448 631h-162
l-167 146h198z" />
    <glyph glyph-name="eacute" unicode="&#xe9;" horiz-adv-x="637" 
d="M594 238h-375v-8q0 -32 3.5 -50.5t16.5 -35t40.5 -23.5t72.5 -7q63 0 214 11v-115q-100 -25 -222 -25q-159 0 -228 63.5t-69 218.5v31q0 147 69 217t206 70q272 0 272 -300v-47zM423 333v8q0 56 -20.5 88t-81.5 32q-59 0 -80 -32.5t-21 -87.5v-8h203zM556 777l-166 -146
h-163l132 146h197z" />
    <glyph glyph-name="ecircumflex" unicode="&#xea;" horiz-adv-x="637" 
d="M594 238h-375v-8q0 -32 3.5 -50.5t16.5 -35t40.5 -23.5t72.5 -7q63 0 214 11v-115q-100 -25 -222 -25q-159 0 -228 63.5t-69 218.5v31q0 147 69 217t206 70q272 0 272 -300v-47zM423 333v8q0 56 -20.5 88t-81.5 32q-59 0 -80 -32.5t-21 -87.5v-8h203zM560 631h-153
l-86 82l-87 -82h-152l135 146h208z" />
    <glyph glyph-name="edieresis" unicode="&#xeb;" horiz-adv-x="637" 
d="M594 238h-375v-8q0 -32 3.5 -50.5t16.5 -35t40.5 -23.5t72.5 -7q63 0 214 11v-115q-100 -25 -222 -25q-159 0 -228 63.5t-69 218.5v31q0 147 69 217t206 70q272 0 272 -300v-47zM423 333v8q0 56 -20.5 88t-81.5 32q-59 0 -80 -32.5t-21 -87.5v-8h203zM516 645h-140v127
h140v-127zM262 772v-127h-141v127h141z" />
    <glyph glyph-name="igrave" unicode="&#xec;" horiz-adv-x="318" 
d="M246 0h-174v570h174v-570zM269 631h-162l-167 146h198z" />
    <glyph glyph-name="iacute" unicode="&#xed;" horiz-adv-x="318" 
d="M246 0h-174v570h174v-570zM378 777l-167 -146h-163l132 146h198z" />
    <glyph glyph-name="icircumflex" unicode="&#xee;" horiz-adv-x="318" 
d="M246 0h-174v570h174v-570zM398 631h-152l-87 82l-86 -82h-153l135 146h209z" />
    <glyph glyph-name="idieresis" unicode="&#xef;" horiz-adv-x="318" 
d="M246 0h-174v570h174v-570zM354 645h-139v127h139v-127zM100 772v-127h-140v127h140z" />
    <glyph glyph-name="eth" unicode="&#xf0;" horiz-adv-x="642" 
d="M595 269q0 -283 -274 -283t-274 264v48q0 266 272 266q43 0 79 -17q-40 76 -124 109l-115 -83l-43 48l79 58q-50 9 -89 9q-17 0 -30 -1v100q30 3 55 3q88 0 167 -23l75 55l44 -47l-46 -36q112 -51 168 -160t56 -256v-54zM421 250v57q0 68 -23.5 96.5t-76.5 28.5
q-54 0 -77.5 -30t-23.5 -101v-51q0 -73 23.5 -103t77.5 -30t77 30t23 103z" />
    <glyph glyph-name="ntilde" unicode="&#xf1;" horiz-adv-x="671" 
d="M606 0h-174v361q0 53 -14 73t-54 20q-45 0 -122 -32v-422h-174v570h164v-46q98 61 187 61q62 0 101.5 -16.5t57 -50.5t23 -68.5t5.5 -88.5v-361zM563 766q0 -139 -119 -139q-48 0 -105 30l-47 26q-36 21 -54 21q-31 0 -31 -48v-24h-99v24q0 72 33.5 105.5t89.5 33.5
q45 0 99 -29l47 -26q38 -21 57 -21q18 0 24.5 11t6.5 36v24h98v-24z" />
    <glyph glyph-name="ograve" unicode="&#xf2;" horiz-adv-x="642" 
d="M595 253q0 -268 -275 -268q-273 0 -273 268v63q0 269 273 269q275 0 275 -269v-63zM421 253v63q0 75 -23.5 105.5t-77.5 30.5q-53 0 -76.5 -30.5t-23.5 -105.5v-63q0 -75 23.5 -105.5t76.5 -30.5q54 0 77.5 30.5t23.5 105.5zM433 631h-162l-167 146h198z" />
    <glyph glyph-name="oacute" unicode="&#xf3;" horiz-adv-x="642" 
d="M595 253q0 -268 -275 -268q-273 0 -273 268v63q0 269 273 269q275 0 275 -269v-63zM421 253v63q0 75 -23.5 105.5t-77.5 30.5q-53 0 -76.5 -30.5t-23.5 -105.5v-63q0 -75 23.5 -105.5t76.5 -30.5q54 0 77.5 30.5t23.5 105.5zM542 777l-166 -146h-163l132 146h197z" />
    <glyph glyph-name="ocircumflex" unicode="&#xf4;" horiz-adv-x="642" 
d="M595 253q0 -268 -275 -268q-273 0 -273 268v63q0 269 273 269q275 0 275 -269v-63zM421 253v63q0 75 -23.5 105.5t-77.5 30.5q-53 0 -76.5 -30.5t-23.5 -105.5v-63q0 -75 23.5 -105.5t76.5 -30.5q54 0 77.5 30.5t23.5 105.5zM560 631h-153l-86 82l-87 -82h-152l135 146
h208z" />
    <glyph glyph-name="otilde" unicode="&#xf5;" horiz-adv-x="642" 
d="M595 253q0 -268 -275 -268q-273 0 -273 268v63q0 269 273 269q275 0 275 -269v-63zM421 253v63q0 75 -23.5 105.5t-77.5 30.5q-53 0 -76.5 -30.5t-23.5 -105.5v-63q0 -75 23.5 -105.5t76.5 -30.5q54 0 77.5 30.5t23.5 105.5zM548 766q0 -139 -119 -139q-48 0 -104 30
l-47 26q-36 21 -55 21q-31 0 -31 -48v-24h-98v24q0 139 123 139q44 0 98 -29l48 -26q39 -21 57 -21q17 0 23.5 11t6.5 36v24h98v-24z" />
    <glyph glyph-name="odieresis" unicode="&#xf6;" horiz-adv-x="642" 
d="M595 253q0 -268 -275 -268q-273 0 -273 268v63q0 269 273 269q275 0 275 -269v-63zM421 253v63q0 75 -23.5 105.5t-77.5 30.5q-53 0 -76.5 -30.5t-23.5 -105.5v-63q0 -75 23.5 -105.5t76.5 -30.5q54 0 77.5 30.5t23.5 105.5zM518 645h-139v127h139v-127zM264 772v-127
h-140v127h140z" />
    <glyph glyph-name="divide" unicode="&#xf7;" horiz-adv-x="677" 
d="M423 75h-170v153h170v-153zM591 452v-132h-506v132h506zM423 541h-170v154h170v-154z" />
    <glyph glyph-name="oslash" unicode="&#xf8;" horiz-adv-x="642" 
d="M595 253q0 -268 -275 -268q-100 0 -167 38l-30 -38h-100l72 90q-48 65 -48 178v63q0 269 273 269q98 0 160 -34l28 34h100l-68 -83q55 -67 55 -186v-63zM421 253v63q0 14 -2 36l-170 -211q23 -24 71 -24q54 0 77.5 30.5t23.5 105.5zM220 229l165 204q-23 19 -65 19
q-53 0 -76.5 -30.5t-23.5 -105.5v-87z" />
    <glyph glyph-name="ugrave" unicode="&#xf9;" 
d="M605 0h-164v46q-105 -61 -200 -61q-45 0 -78 13t-51 32.5t-28.5 50.5t-13.5 60t-3 68v361h174v-361q0 -53 13.5 -73t54.5 -20q43 0 122 32v422h174v-570zM448 631h-163l-166 146h197z" />
    <glyph glyph-name="uacute" unicode="&#xfa;" 
d="M605 0h-164v46q-105 -61 -200 -61q-45 0 -78 13t-51 32.5t-28.5 50.5t-13.5 60t-3 68v361h174v-361q0 -53 13.5 -73t54.5 -20q43 0 122 32v422h174v-570zM564 777l-167 -146h-163l132 146h198z" />
    <glyph glyph-name="ucircumflex" unicode="&#xfb;" 
d="M605 0h-164v46q-105 -61 -200 -61q-45 0 -78 13t-51 32.5t-28.5 50.5t-13.5 60t-3 68v361h174v-361q0 -53 13.5 -73t54.5 -20q43 0 122 32v422h174v-570zM576 631h-152l-87 82l-86 -82h-152l135 146h208z" />
    <glyph glyph-name="udieresis" unicode="&#xfc;" 
d="M605 0h-164v46q-105 -61 -200 -61q-45 0 -78 13t-51 32.5t-28.5 50.5t-13.5 60t-3 68v361h174v-361q0 -53 13.5 -73t54.5 -20q43 0 122 32v422h174v-570zM534 645h-139v127h139v-127zM280 772v-127h-140v127h140z" />
    <glyph glyph-name="yacute" unicode="&#xfd;" horiz-adv-x="637" 
d="M616 570l-181 -574q-34 -116 -86 -164t-152 -48q-98 0 -161 13v111q49 -2 108 -2q31 0 46 14.5t30 54.5l10 31l-207 564h187l84 -293q8 -28 19.5 -82.5t14.5 -68.5h2q18 92 33 152l76 292h177zM560 777l-166 -146h-163l132 146h197z" />
    <glyph glyph-name="thorn" unicode="&#xfe;" horiz-adv-x="654" 
d="M242 -203h-174v982h163v-244q79 50 165 50q211 0 211 -263v-68q0 -142 -68 -205.5t-196 -63.5q-45 0 -101 9v-197zM433 254v68q0 72 -21.5 101t-71.5 29q-46 0 -100 -24v-304q50 -8 86 -8q57 0 82 28.5t25 109.5z" />
    <glyph glyph-name="ydieresis" unicode="&#xff;" horiz-adv-x="637" 
d="M616 570l-181 -574q-34 -116 -86 -164t-152 -48q-98 0 -161 13v111q49 -2 108 -2q31 0 46 14.5t30 54.5l10 31l-207 564h187l84 -293q8 -28 19.5 -82.5t14.5 -68.5h2q18 92 33 152l76 292h177zM527 645h-140v127h140v-127zM273 772v-127h-141v127h141z" />
    <glyph glyph-name="Amacron" unicode="&#x100;" horiz-adv-x="748" 
d="M727 0h-196l-53 187h-211l-54 -187h-192l207 743h290zM453 321l-54 197q-14 54 -23 114h-7q-11 -72 -23 -114l-53 -197h160zM578 808h-408v100h408v-100z" />
    <glyph glyph-name="amacron" unicode="&#x101;" horiz-adv-x="609" 
d="M547 0h-159v37q-77 -52 -179 -52q-81 0 -124 41t-43 122v23q0 44 14 75.5t36.5 50t60.5 28.5t75.5 13t91.5 3h53v31q0 53 -19 68.5t-86 15.5q-93 0 -184 -10v104q32 12 94 23.5t126 11.5q133 0 188 -48.5t55 -164.5v-372zM379 123v128h-58q-64 0 -88.5 -14t-24.5 -60v-23
q0 -58 65 -58q60 0 106 27zM511 653h-408v99h408v-99z" />
    <glyph glyph-name="Abreve" unicode="&#x102;" horiz-adv-x="748" 
d="M727 0h-196l-53 187h-211l-54 -187h-192l207 743h290zM453 321l-54 197q-14 54 -23 114h-7q-11 -72 -23 -114l-53 -197h160zM582 944q-9 -81 -67.5 -120.5t-140.5 -39.5t-140.5 39.5t-67.5 120.5h102q10 -77 106 -77q95 0 107 77h101z" />
    <glyph glyph-name="abreve" unicode="&#x103;" horiz-adv-x="609" 
d="M547 0h-159v37q-77 -52 -179 -52q-81 0 -124 41t-43 122v23q0 44 14 75.5t36.5 50t60.5 28.5t75.5 13t91.5 3h53v31q0 53 -19 68.5t-86 15.5q-93 0 -184 -10v104q32 12 94 23.5t126 11.5q133 0 188 -48.5t55 -164.5v-372zM379 123v128h-58q-64 0 -88.5 -14t-24.5 -60v-23
q0 -58 65 -58q60 0 106 27zM519 789q-9 -81 -67.5 -120.5t-140.5 -39.5t-140 39.5t-68 120.5h102q10 -77 106 -77q95 0 107 77h101z" />
    <glyph glyph-name="Aogonek" unicode="&#x104;" horiz-adv-x="748" 
d="M727 -200q-56 -17 -135 -17q-150 0 -150 105q0 68 87 117l-51 182h-211l-54 -187h-192l207 743h290l209 -743q-80 -29 -108.5 -49.5t-28.5 -39.5q0 -35 53 -35q19 0 84 5v-81zM453 321l-54 197q-14 54 -23 114h-7q-11 -72 -23 -114l-53 -197h160z" />
    <glyph glyph-name="aogonek" unicode="&#x105;" horiz-adv-x="609" 
d="M547 -200q-56 -17 -135 -17q-150 0 -150 88q0 78 126 127v45q-86 -58 -179 -58q-81 0 -124 41t-43 122v23q0 44 14 75.5t36.5 50t60.5 28.5t75.5 13t91.5 3h53v31q0 53 -19 68.5t-86 15.5q-93 0 -184 -10v104q32 12 94 23.5t126 11.5q133 0 188 -48.5t55 -164.5v-372
q-79 -29 -107.5 -49.5t-28.5 -39.5q0 -35 53 -35q20 0 83 5v-81zM379 123v128h-58q-64 0 -88.5 -14t-24.5 -60v-23q0 -58 65 -58q60 0 106 27z" />
    <glyph glyph-name="Cacute" unicode="&#x106;" horiz-adv-x="616" 
d="M584 3q-29 -7 -92.5 -13.5t-108.5 -6.5q-169 0 -251.5 77t-82.5 269v86q0 192 82.5 268t251.5 76q45 0 109 -6.5t92 -14.5v-133q-113 9 -183 9q-87 0 -125 -41.5t-38 -157.5v-86q0 -117 38 -159t126 -42q82 0 182 8v-133zM595 935l-166 -146h-163l132 146h197z" />
    <glyph glyph-name="cacute" unicode="&#x107;" horiz-adv-x="533" 
d="M492 7q-91 -22 -191 -22q-254 0 -254 268v64q0 136 62 202t192 66q100 0 191 -22v-119q-122 8 -158 8q-61 0 -87.5 -27.5t-26.5 -107.5v-64q0 -80 27 -108t87 -28q36 0 158 8v-118zM532 777l-167 -146h-162l131 146h198z" />
    <glyph glyph-name="Ccircumflex" unicode="&#x108;" horiz-adv-x="616" 
d="M584 3q-29 -7 -92.5 -13.5t-108.5 -6.5q-169 0 -251.5 77t-82.5 269v86q0 192 82.5 268t251.5 76q45 0 109 -6.5t92 -14.5v-133q-113 9 -183 9q-87 0 -125 -41.5t-38 -157.5v-86q0 -117 38 -159t126 -42q82 0 182 8v-133zM585 789h-152l-87 82l-86 -82h-153l135 146h209z
" />
    <glyph glyph-name="ccircumflex" unicode="&#x109;" horiz-adv-x="533" 
d="M492 7q-91 -22 -191 -22q-254 0 -254 268v64q0 136 62 202t192 66q100 0 191 -22v-119q-122 8 -158 8q-61 0 -87.5 -27.5t-26.5 -107.5v-64q0 -80 27 -108t87 -28q36 0 158 8v-118zM537 631h-152l-87 82l-86 -82h-153l135 146h209z" />
    <glyph glyph-name="Cdotaccent" unicode="&#x10a;" horiz-adv-x="616" 
d="M584 3q-29 -7 -92.5 -13.5t-108.5 -6.5q-169 0 -251.5 77t-82.5 269v86q0 192 82.5 268t251.5 76q45 0 109 -6.5t92 -14.5v-133q-113 9 -183 9q-87 0 -125 -41.5t-38 -157.5v-86q0 -117 38 -159t126 -42q82 0 182 8v-133zM452 800h-180v127h180v-127z" />
    <glyph glyph-name="cdotaccent" unicode="&#x10b;" horiz-adv-x="533" 
d="M492 7q-91 -22 -191 -22q-254 0 -254 268v64q0 136 62 202t192 66q100 0 191 -22v-119q-122 8 -158 8q-61 0 -87.5 -27.5t-26.5 -107.5v-64q0 -80 27 -108t87 -28q36 0 158 8v-118zM392 651h-180v127h180v-127z" />
    <glyph glyph-name="Ccaron" unicode="&#x10c;" horiz-adv-x="616" 
d="M584 3q-29 -7 -92.5 -13.5t-108.5 -6.5q-169 0 -251.5 77t-82.5 269v86q0 192 82.5 268t251.5 76q45 0 109 -6.5t92 -14.5v-133q-113 9 -183 9q-87 0 -125 -41.5t-38 -157.5v-86q0 -117 38 -159t126 -42q82 0 182 8v-133zM122 935h152l86 -82l87 82h152l-134 -146h-208z
" />
    <glyph glyph-name="ccaron" unicode="&#x10d;" horiz-adv-x="533" 
d="M492 7q-91 -22 -191 -22q-254 0 -254 268v64q0 136 62 202t192 66q100 0 191 -22v-119q-122 8 -158 8q-61 0 -87.5 -27.5t-26.5 -107.5v-64q0 -80 27 -108t87 -28q36 0 158 8v-118zM56 777h152l87 -82l86 82h153l-135 -146h-208z" />
    <glyph glyph-name="Dcaron" unicode="&#x10e;" horiz-adv-x="738" 
d="M689 335q0 -180 -85 -262t-275 -82q-133 0 -256 9v743q122 9 256 9q187 0 273.5 -82t86.5 -258v-77zM505 335v77q0 116 -39 157.5t-135 41.5h-76v-480h76q96 0 135 44t39 160zM125 934h152l87 -82l86 82h153l-135 -146h-208z" />
    <glyph glyph-name="dcaron" unicode="&#x10f;" horiz-adv-x="827" 
d="M585 0h-161v29q-71 -44 -161 -44q-104 0 -160 65t-56 197v70q0 144 66 206t193 62q47 0 105 -9v203h174v-779zM413 137v309q-50 8 -86 8q-57 0 -81.5 -27.5t-24.5 -109.5v-70q0 -72 21.5 -101t76.5 -29q46 0 94 20zM847 779l-88 -255h-125l58 255h155z" />
    <glyph glyph-name="Dcroat" unicode="&#x110;" horiz-adv-x="738" 
d="M689 335q0 -180 -85 -262t-275 -82q-145 0 -256 9v318h-50v126h50v299q111 9 256 9q187 0 273.5 -82t86.5 -258v-77zM505 335v77q0 116 -39 157.5t-135 41.5h-76v-167h110v-126h-110v-187h76q96 0 135 44t39 160z" />
    <glyph glyph-name="dcroat" unicode="&#x111;" horiz-adv-x="670" 
d="M411 779h174v-56h57v-85h-57v-638h-161v29q-71 -44 -161 -44q-104 0 -160 65t-56 197v70q0 144 66 206t193 62q47 0 105 -9v62h-166v85h166v56zM413 137v309q-50 8 -86 8q-57 0 -81.5 -27.5t-24.5 -109.5v-70q0 -72 21.5 -101t76.5 -29q43 0 94 20z" />
    <glyph glyph-name="Emacron" unicode="&#x112;" horiz-adv-x="628" 
d="M579 0h-506v743h506v-136h-319v-162h298v-129h-298v-181h319v-135zM534 808h-408v100h408v-100z" />
    <glyph glyph-name="emacron" unicode="&#x113;" horiz-adv-x="637" 
d="M594 238h-375v-8q0 -32 3.5 -50.5t16.5 -35t40.5 -23.5t72.5 -7q63 0 214 11v-115q-100 -25 -222 -25q-159 0 -228 63.5t-69 218.5v31q0 147 69 217t206 70q272 0 272 -300v-47zM423 333v8q0 56 -20.5 88t-81.5 32q-59 0 -80 -32.5t-21 -87.5v-8h203zM521 653h-409v99
h409v-99z" />
    <glyph glyph-name="Ebreve" unicode="&#x114;" horiz-adv-x="628" 
d="M579 0h-506v743h506v-136h-319v-162h298v-129h-298v-181h319v-135zM540 944q-9 -81 -67.5 -120.5t-140.5 -39.5t-140.5 39.5t-67.5 120.5h102q10 -77 106 -77q95 0 107 77h101z" />
    <glyph glyph-name="ebreve" unicode="&#x115;" horiz-adv-x="637" 
d="M594 238h-375v-8q0 -32 3.5 -50.5t16.5 -35t40.5 -23.5t72.5 -7q63 0 214 11v-115q-100 -25 -222 -25q-159 0 -228 63.5t-69 218.5v31q0 147 69 217t206 70q272 0 272 -300v-47zM423 333v8q0 56 -20.5 88t-81.5 32q-59 0 -80 -32.5t-21 -87.5v-8h203zM527 788
q-9 -80 -67 -119.5t-141 -39.5t-141 39.5t-67 119.5h102q10 -77 106 -77q95 0 107 77h101z" />
    <glyph glyph-name="Edotaccent" unicode="&#x116;" horiz-adv-x="628" 
d="M579 0h-506v743h506v-136h-319v-162h298v-129h-298v-181h319v-135zM414 800h-180v127h180v-127z" />
    <glyph glyph-name="edotaccent" unicode="&#x117;" horiz-adv-x="637" 
d="M594 238h-375v-8q0 -32 3.5 -50.5t16.5 -35t40.5 -23.5t72.5 -7q63 0 214 11v-115q-100 -25 -222 -25q-159 0 -228 63.5t-69 218.5v31q0 147 69 217t206 70q272 0 272 -300v-47zM423 333v8q0 56 -20.5 88t-81.5 32q-59 0 -80 -32.5t-21 -87.5v-8h203zM406 651h-180v127
h180v-127z" />
    <glyph glyph-name="Eogonek" unicode="&#x118;" horiz-adv-x="628" 
d="M579 -200q-56 -17 -135 -17q-150 0 -150 99q0 77 123 118h-344v743h506v-136h-319v-162h298v-129h-298v-181h319v-135q-79 -29 -107.5 -49.5t-28.5 -39.5q0 -35 53 -35q20 0 83 5v-81z" />
    <glyph glyph-name="eogonek" unicode="&#x119;" horiz-adv-x="637" 
d="M594 238h-375v-8q0 -32 3.5 -50.5t16.5 -35t40.5 -23.5t72.5 -7q63 0 214 11v-115q-137 -50 -137 -99q0 -35 53 -35q19 0 84 5v-81q-56 -17 -135 -17q-151 0 -151 99q0 60 71 103h-7q-159 0 -228 63.5t-69 218.5v31q0 147 69 217t206 70q272 0 272 -300v-47zM423 333v8
q0 56 -20.5 88t-81.5 32q-59 0 -80 -32.5t-21 -87.5v-8h203z" />
    <glyph glyph-name="Ecaron" unicode="&#x11a;" horiz-adv-x="628" 
d="M579 0h-506v743h506v-136h-319v-162h298v-129h-298v-181h319v-135zM91 935h152l87 -82l86 82h153l-135 -146h-208z" />
    <glyph glyph-name="ecaron" unicode="&#x11b;" horiz-adv-x="637" 
d="M594 238h-375v-8q0 -32 3.5 -50.5t16.5 -35t40.5 -23.5t72.5 -7q63 0 214 11v-115q-100 -25 -222 -25q-159 0 -228 63.5t-69 218.5v31q0 147 69 217t206 70q272 0 272 -300v-47zM423 333v8q0 56 -20.5 88t-81.5 32q-59 0 -80 -32.5t-21 -87.5v-8h203zM86 777h152l87 -82
l86 82h153l-135 -146h-208z" />
    <glyph glyph-name="Gcircumflex" unicode="&#x11c;" horiz-adv-x="705" 
d="M644 7q-125 -24 -267 -24q-57 0 -102.5 8.5t-89 31.5t-72.5 61t-46.5 100t-17.5 144v88q0 86 19.5 149.5t50 100t76.5 58t89 28.5t97 7q74 0 150 -9t110 -18v-127q-156 9 -225 9q-48 0 -78 -6.5t-55.5 -27t-37 -60.5t-11.5 -104v-88q0 -115 35 -157.5t116 -42.5
q61 0 85 2v271h174v-394zM600 789h-153l-86 82l-87 -82h-152l135 146h208z" />
    <glyph glyph-name="gcircumflex" unicode="&#x11d;" horiz-adv-x="655" 
d="M587 -15q0 -101 -59.5 -151t-209.5 -50q-71 0 -141 8.5t-95 14.5v104q173 -8 222 -8q69 0 89 17.5t20 64.5v19q-51 -8 -91 -8q-135 0 -204 64t-69 201v58q0 138 72.5 202t231.5 64q108 0 234 -15v-585zM414 132v317q-28 5 -78 5q-65 0 -89.5 -31t-24.5 -104v-58
q0 -74 25.5 -104t87.5 -30q49 0 79 5zM568 631h-152l-87 82l-86 -82h-153l135 146h209z" />
    <glyph glyph-name="Gbreve" unicode="&#x11e;" horiz-adv-x="705" 
d="M644 7q-125 -24 -267 -24q-57 0 -102.5 8.5t-89 31.5t-72.5 61t-46.5 100t-17.5 144v88q0 86 19.5 149.5t50 100t76.5 58t89 28.5t97 7q74 0 150 -9t110 -18v-127q-156 9 -225 9q-48 0 -78 -6.5t-55.5 -27t-37 -60.5t-11.5 -104v-88q0 -115 35 -157.5t116 -42.5
q61 0 85 2v271h174v-394zM584 948q-9 -81 -67.5 -120.5t-140.5 -39.5t-140 39.5t-68 120.5h102q10 -77 106 -77q95 0 107 77h101z" />
    <glyph glyph-name="gbreve" unicode="&#x11f;" horiz-adv-x="655" 
d="M587 -15q0 -101 -59.5 -151t-209.5 -50q-71 0 -141 8.5t-95 14.5v104q173 -8 222 -8q69 0 89 17.5t20 64.5v19q-51 -8 -91 -8q-135 0 -204 64t-69 201v58q0 138 72.5 202t231.5 64q108 0 234 -15v-585zM414 132v317q-28 5 -78 5q-65 0 -89.5 -31t-24.5 -104v-58
q0 -74 25.5 -104t87.5 -30q49 0 79 5zM537 788q-9 -80 -67 -119.5t-141 -39.5q-82 0 -140 39.5t-67 119.5h101q10 -77 106 -77q97 0 107 77h101z" />
    <glyph glyph-name="Gdotaccent" unicode="&#x120;" horiz-adv-x="705" 
d="M644 7q-125 -24 -267 -24q-57 0 -102.5 8.5t-89 31.5t-72.5 61t-46.5 100t-17.5 144v88q0 86 19.5 149.5t50 100t76.5 58t89 28.5t97 7q74 0 150 -9t110 -18v-127q-156 9 -225 9q-48 0 -78 -6.5t-55.5 -27t-37 -60.5t-11.5 -104v-88q0 -115 35 -157.5t116 -42.5
q61 0 85 2v271h174v-394zM457 800h-180v127h180v-127z" />
    <glyph glyph-name="gdotaccent" unicode="&#x121;" horiz-adv-x="655" 
d="M587 -15q0 -101 -59.5 -151t-209.5 -50q-71 0 -141 8.5t-95 14.5v104q173 -8 222 -8q69 0 89 17.5t20 64.5v19q-51 -8 -91 -8q-135 0 -204 64t-69 201v58q0 138 72.5 202t231.5 64q108 0 234 -15v-585zM414 132v317q-28 5 -78 5q-65 0 -89.5 -31t-24.5 -104v-58
q0 -74 25.5 -104t87.5 -30q49 0 79 5zM419 651h-179v127h179v-127z" />
    <glyph glyph-name="Gcommaaccent" unicode="&#x122;" horiz-adv-x="705" 
d="M644 7q-125 -24 -267 -24q-57 0 -102.5 8.5t-89 31.5t-72.5 61t-46.5 100t-17.5 144v88q0 86 19.5 149.5t50 100t76.5 58t89 28.5t97 7q74 0 150 -9t110 -18v-127q-156 9 -225 9q-48 0 -78 -6.5t-55.5 -27t-37 -60.5t-11.5 -104v-88q0 -115 35 -157.5t116 -42.5
q61 0 85 2v271h174v-394zM474 -63l-96 -140h-152l68 140h180z" />
    <glyph glyph-name="gcommaaccent" unicode="&#x123;" horiz-adv-x="655" 
d="M587 -15q0 -101 -59.5 -151t-209.5 -50q-71 0 -141 8.5t-95 14.5v104q173 -8 222 -8q69 0 89 17.5t20 64.5v19q-51 -8 -91 -8q-135 0 -204 64t-69 201v58q0 138 72.5 202t231.5 64q108 0 234 -15v-585zM414 132v317q-28 5 -78 5q-65 0 -89.5 -31t-24.5 -104v-58
q0 -74 25.5 -104t87.5 -30q49 0 79 5zM253 631l95 140h152l-67 -140h-180z" />
    <glyph glyph-name="Hcircumflex" unicode="&#x124;" horiz-adv-x="800" 
d="M727 0h-187v313h-279v-313h-188v743h188v-288h279v288h187v-743zM640 788h-152l-87 82l-86 -82h-152l135 146h208z" />
    <glyph glyph-name="hcircumflex" unicode="&#x125;" 
d="M606 0h-174v359q0 55 -16.5 75t-58.5 20q-57 0 -115 -27v-427h-174v779h174v-234q80 40 171 40q111 0 152 -57t41 -167v-361zM575 797h-153l-86 82l-87 -82h-152l135 146h208z" />
    <glyph glyph-name="Hbar" unicode="&#x126;" horiz-adv-x="800" 
d="M11 553v80h62v110h188v-110h279v110h187v-110h60v-80h-60v-553h-187v313h-279v-313h-188v553h-62zM261 455h279v98h-279v-98z" />
    <glyph glyph-name="hbar" unicode="&#x127;" 
d="M13 640v83h55v56h175v-56h168v-83h-168v-95q78 40 170 40q111 0 152 -57t41 -167v-361h-174v359q0 55 -16.5 75t-58.5 20q-56 0 -114 -27v-427h-175v640h-55z" />
    <glyph glyph-name="Itilde" unicode="&#x128;" horiz-adv-x="333" 
d="M260 0h-187v743h187v-743zM393 923q0 -139 -119 -139q-46 0 -105 31l-47 26q-34 20 -54 20q-31 0 -31 -47v-25h-98v25q0 71 33 104.5t89 33.5q45 0 99 -29l48 -26q37 -21 57 -21q17 0 23.5 11t6.5 36v24h98v-24z" />
    <glyph glyph-name="itilde" unicode="&#x129;" horiz-adv-x="318" 
d="M246 0h-174v570h174v-570zM387 766q0 -139 -119 -139q-48 0 -105 30l-47 26q-36 21 -54 21q-31 0 -31 -48v-24h-99v24q0 72 33.5 105.5t89.5 33.5q45 0 99 -29l47 -26q38 -21 57 -21q18 0 24.5 11t6.5 36v24h98v-24z" />
    <glyph glyph-name="Imacron" unicode="&#x12a;" horiz-adv-x="333" 
d="M260 0h-187v743h187v-743zM371 808h-408v100h408v-100z" />
    <glyph glyph-name="imacron" unicode="&#x12b;" horiz-adv-x="318" 
d="M246 0h-174v570h174v-570zM364 653h-409v99h409v-99z" />
    <glyph glyph-name="Ibreve" unicode="&#x12c;" horiz-adv-x="333" 
d="M260 0h-187v743h187v-743zM375 948q-9 -80 -67 -119.5t-141 -39.5q-82 0 -140 39t-68 120h102q10 -77 106 -77q95 0 107 77h101z" />
    <glyph glyph-name="ibreve" unicode="&#x12d;" horiz-adv-x="318" 
d="M246 0h-174v570h174v-570zM367 788q-9 -80 -67 -119.5t-141 -39.5q-82 0 -140 39.5t-67 119.5h101q10 -77 106 -77q97 0 107 77h101z" />
    <glyph glyph-name="Iogonek" unicode="&#x12e;" horiz-adv-x="333" 
d="M260 0q-91 -43 -91 -89q0 -35 53 -35q19 0 84 5v-81q-56 -17 -135 -17q-77 0 -114 23.5t-37 83.5q0 65 53 112v741h187v-743z" />
    <glyph glyph-name="iogonek" unicode="&#x12f;" horiz-adv-x="318" 
d="M300 -200q-56 -17 -135 -17q-150 0 -150 107q0 63 57 112v568h174v-570q-82 -45 -82 -87q0 -37 53 -37q21 0 83 5v-81zM250 648h-181v131h181v-131z" />
    <glyph glyph-name="Idotaccent" unicode="&#x130;" horiz-adv-x="333" 
d="M260 0h-187v743h187v-743zM257 800h-180v127h180v-127z" />
    <glyph glyph-name="dotlessi" unicode="&#x131;" horiz-adv-x="318" 
d="M246 0h-174v570h174v-570z" />
    <glyph glyph-name="IJ" unicode="&#x132;" horiz-adv-x="689" 
d="M610 -23q0 -102 -47 -147t-151 -45q-59 0 -99 9v114q40 -2 53 -2q36 0 46.5 13t10.5 51v773h187v-766zM266 0h-187v743h187v-743z" />
    <glyph glyph-name="ij" unicode="&#x133;" horiz-adv-x="641" 
d="M247 0h-174v570h174v-570zM251 648h-181v131h181v-131zM568 -35q0 -103 -41.5 -143t-142.5 -40q-64 0 -98 8v110q9 0 28 -0.5t29 -0.5q32 0 41.5 13t9.5 53v605h174v-605zM572 648h-181v131h181v-131z" />
    <glyph glyph-name="Jcircumflex" unicode="&#x134;" horiz-adv-x="333" 
d="M260 -23q0 -102 -47 -147t-151 -45q-59 0 -99 9l7 120q12 -2 46 -8q36 0 46.5 13t10.5 51v773h187v-766zM405 789h-152l-87 82l-86 -82h-152l135 146h208z" />
    <glyph glyph-name="jcircumflex" unicode="&#x135;" horiz-adv-x="318" 
d="M246 -35q0 -103 -41.5 -143t-142.5 -40q-62 0 -98 9v110q19 -1 56 -1q33 0 42.5 13t9.5 52v605h174v-605zM398 631h-153l-86 82l-87 -82h-152l135 146h208z" />
    <glyph glyph-name="Kcommaaccent" unicode="&#x136;" horiz-adv-x="738" 
d="M731 0h-226l-241 345v-345h-188v743h188v-344l254 344h216l-277 -367zM490 -63l-95 -140h-152l67 140h180z" />
    <glyph glyph-name="kcommaaccent" unicode="&#x137;" horiz-adv-x="624" 
d="M615 0h-197l-176 264v-264h-174v779h174v-461l179 252h186l-198 -274zM421 -63l-95 -140h-152l67 140h180z" />
    <glyph glyph-name="kgreenlandic" unicode="&#x138;" horiz-adv-x="624" 
d="M615 0h-197l-176 264v-264h-174v570h174v-252l179 252h186l-198 -274z" />
    <glyph glyph-name="Lacute" unicode="&#x139;" horiz-adv-x="579" 
d="M552 0h-479v743h188v-603h291v-140zM532 935l-166 -146h-163l132 146h197z" />
    <glyph glyph-name="lacute" unicode="&#x13a;" horiz-adv-x="317" 
d="M246 0h-174v779h174v-779zM389 944l-166 -146h-163l132 146h197z" />
    <glyph glyph-name="Lcommaaccent" unicode="&#x13b;" horiz-adv-x="579" 
d="M552 0h-479v743h188v-603h291v-140zM416 -63l-95 -140h-152l67 140h180z" />
    <glyph glyph-name="lcommaaccent" unicode="&#x13c;" horiz-adv-x="317" 
d="M246 0h-174v779h174v-779zM249 -63l-95 -140h-152l67 140h180z" />
    <glyph glyph-name="Lcaron" unicode="&#x13d;" horiz-adv-x="579" 
d="M552 0h-479v743h188v-603h291v-140zM569 759l-94 -255h-122l61 255h155z" />
    <glyph glyph-name="lcaron" unicode="&#x13e;" horiz-adv-x="500" 
d="M246 0h-174v779h174v-779zM520 779l-94 -256h-122l61 256h155z" />
    <glyph glyph-name="Ldot" unicode="&#x13f;" horiz-adv-x="579" 
d="M552 0h-479v743h188v-603h291v-140zM516 348h-165v165h165v-165z" />
    <glyph glyph-name="ldot" unicode="&#x140;" horiz-adv-x="488" 
d="M246 0h-174v779h174v-779zM478 286h-165v165h165v-165z" />
    <glyph glyph-name="Lslash" unicode="&#x141;" horiz-adv-x="579" 
d="M8 220v108l65 51v364h188v-255l96 75v-108l-96 -75v-239h291v-141h-479v273z" />
    <glyph glyph-name="lslash" unicode="&#x142;" horiz-adv-x="352" 
d="M263 0h-174v266l-77 -68v132l77 68v381h174v-228l77 68v-132l-77 -68v-419z" />
    <glyph glyph-name="Nacute" unicode="&#x143;" horiz-adv-x="776" 
d="M703 0h-194l-215 386q-29 52 -52 102h-2q3 -117 3 -120v-368h-170v743h191l217 -379q27 -49 53 -105h2q-3 52 -3 127v357h170v-743zM622 935l-166 -146h-163l132 146h197z" />
    <glyph glyph-name="nacute" unicode="&#x144;" horiz-adv-x="671" 
d="M606 0h-174v361q0 53 -14 73t-54 20q-45 0 -122 -32v-422h-174v570h164v-46q98 61 187 61q62 0 101.5 -16.5t57 -50.5t23 -68.5t5.5 -88.5v-361zM570 777l-166 -146h-163l132 146h197z" />
    <glyph glyph-name="Ncommaaccent" unicode="&#x145;" horiz-adv-x="776" 
d="M703 0h-194l-215 386q-29 52 -52 102h-2q3 -117 3 -120v-368h-170v743h191l217 -379q27 -49 53 -105h2q-3 52 -3 127v357h170v-743zM494 -63l-95 -140h-152l67 140h180z" />
    <glyph glyph-name="ncommaaccent" unicode="&#x146;" horiz-adv-x="671" 
d="M606 0h-174v361q0 53 -14 73t-54 20q-45 0 -122 -32v-422h-174v570h164v-46q98 61 187 61q62 0 101.5 -16.5t57 -50.5t23 -68.5t5.5 -88.5v-361zM434 -63l-95 -140h-152l67 140h180z" />
    <glyph glyph-name="Ncaron" unicode="&#x147;" horiz-adv-x="776" 
d="M703 0h-194l-215 386q-29 52 -52 102h-2q3 -117 3 -120v-368h-170v743h191l217 -379q27 -49 53 -105h2q-3 52 -3 127v357h170v-743zM150 935h152l87 -82l86 82h153l-135 -146h-208z" />
    <glyph glyph-name="ncaron" unicode="&#x148;" horiz-adv-x="671" 
d="M606 0h-174v361q0 53 -14 73t-54 20q-45 0 -122 -32v-422h-174v570h164v-46q98 61 187 61q62 0 101.5 -16.5t57 -50.5t23 -68.5t5.5 -88.5v-361zM102 777h153l86 -82l87 82h152l-135 -146h-208z" />
    <glyph glyph-name="napostrophe" unicode="&#x149;" horiz-adv-x="788" 
d="M723 0h-174v361q0 53 -14 73t-54 20q-45 0 -122 -32v-422h-174v570h164v-46q98 61 187 61q62 0 101.5 -16.5t57 -50.5t23 -68.5t5.5 -88.5v-361zM206 779l-95 -256h-121l60 256h156z" />
    <glyph glyph-name="Eng" unicode="&#x14a;" horiz-adv-x="776" 
d="M703 -23q0 -102 -47 -147t-151 -45q-59 0 -99 9v112h54q36 0 46 13t10 51v56l-222 360q-22 35 -52 102h-3q3 -59 3 -120v-368h-169v743h191l217 -344q25 -42 53 -106h2q-4 48 -4 128v322h171v-766z" />
    <glyph glyph-name="eng" unicode="&#x14b;" horiz-adv-x="671" 
d="M68 570h163v-46q98 61 191 61q61 0 99.5 -16.5t56 -50.5t23 -68.5t5.5 -88.5v-395q0 -101 -42 -142t-141 -41q-59 0 -100 9v110q38 -2 58 -2q32 0 41.5 13.5t9.5 52.5v395q0 53 -14 73t-54 20q-45 0 -122 -32v-422h-174v570z" />
    <glyph glyph-name="Omacron" unicode="&#x14c;" horiz-adv-x="745" 
d="M696 333q0 -350 -324 -350q-323 0 -323 350v76q0 350 323 350q324 0 324 -350v-76zM512 334v75q0 112 -34.5 158.5t-105.5 46.5q-69 0 -104 -46.5t-35 -158.5v-75q0 -113 35 -159.5t104 -46.5q70 0 105 46.5t35 159.5zM577 808h-409v100h409v-100z" />
    <glyph glyph-name="omacron" unicode="&#x14d;" horiz-adv-x="642" 
d="M595 253q0 -268 -275 -268q-273 0 -273 268v63q0 269 273 269q275 0 275 -269v-63zM421 253v63q0 75 -23.5 105.5t-77.5 30.5q-53 0 -76.5 -30.5t-23.5 -105.5v-63q0 -75 23.5 -105.5t76.5 -30.5q54 0 77.5 30.5t23.5 105.5zM525 653h-409v99h409v-99z" />
    <glyph glyph-name="Obreve" unicode="&#x14e;" horiz-adv-x="745" 
d="M696 333q0 -350 -324 -350q-323 0 -323 350v76q0 350 323 350q324 0 324 -350v-76zM512 334v75q0 112 -34.5 158.5t-105.5 46.5q-69 0 -104 -46.5t-35 -158.5v-75q0 -113 35 -159.5t104 -46.5q70 0 105 46.5t35 159.5zM580 943q-9 -80 -67 -119.5t-141 -39.5
q-82 0 -140 39.5t-67 119.5h101q10 -77 106 -77q97 0 107 77h101z" />
    <glyph glyph-name="obreve" unicode="&#x14f;" horiz-adv-x="642" 
d="M595 253q0 -268 -275 -268q-273 0 -273 268v63q0 269 273 269q275 0 275 -269v-63zM421 253v63q0 75 -23.5 105.5t-77.5 30.5q-53 0 -76.5 -30.5t-23.5 -105.5v-63q0 -75 23.5 -105.5t76.5 -30.5q54 0 77.5 30.5t23.5 105.5zM528 788q-9 -81 -67 -120t-140 -39
q-83 0 -141 39.5t-67 119.5h101q12 -77 107 -77t107 77h100z" />
    <glyph glyph-name="Ohungarumlaut" unicode="&#x150;" horiz-adv-x="745" 
d="M696 333q0 -350 -324 -350q-323 0 -323 350v76q0 350 323 350q324 0 324 -350v-76zM512 334v75q0 112 -34.5 158.5t-105.5 46.5q-69 0 -104 -46.5t-35 -158.5v-75q0 -113 35 -159.5t104 -46.5q70 0 105 46.5t35 159.5zM741 934l-166 -146h-150l132 146h184zM280 934h185
l-166 -146h-150z" />
    <glyph glyph-name="ohungarumlaut" unicode="&#x151;" horiz-adv-x="642" 
d="M595 253q0 -268 -275 -268q-273 0 -273 268v63q0 269 273 269q275 0 275 -269v-63zM421 253v63q0 75 -23.5 105.5t-77.5 30.5q-53 0 -76.5 -30.5t-23.5 -105.5v-63q0 -75 23.5 -105.5t76.5 -30.5q54 0 77.5 30.5t23.5 105.5zM704 777l-166 -146h-151l133 146h184z
M243 777h185l-166 -146h-151z" />
    <glyph glyph-name="OE" unicode="&#x152;" horiz-adv-x="1016" 
d="M970 135v-135h-442q-102 -17 -164 -17q-318 0 -318 348v79q0 349 318 349q71 0 163 -16h443v-136h-319v-162h297v-129h-297v-181h319zM467 134v473q-53 7 -93 7q-73 0 -108.5 -45.5t-35.5 -158.5v-79q0 -112 35.5 -158t108.5 -46q42 0 93 7z" />
    <glyph glyph-name="oe" unicode="&#x153;" horiz-adv-x="1014" 
d="M968 238h-374v-8q0 -33 3.5 -51t16 -36.5t40 -26t72.5 -7.5q123 0 214 11v-111q-92 -23 -231 -23t-202 60q-67 -61 -188 -61q-273 0 -273 268v63q0 269 273 269q125 0 189 -62q64 62 188 62q77 0 132 -23.5t84.5 -65t42.5 -89.5t13 -107v-62zM798 333v8q0 56 -21 88.5
t-81 32.5q-58 0 -79.5 -31t-22.5 -81v-17h204zM420 253v63q0 75 -23.5 106t-77.5 31q-53 0 -76.5 -31t-23.5 -106v-63q0 -75 23.5 -105.5t76.5 -30.5q54 0 77.5 30.5t23.5 105.5z" />
    <glyph glyph-name="Racute" unicode="&#x154;" horiz-adv-x="718" 
d="M706 0h-189l-152 265h-112v-265h-180v743q166 9 240 9q61 0 108 -5t93.5 -20.5t76.5 -41.5t48.5 -70t18.5 -103v-7q0 -148 -118 -205zM477 502v7q0 61 -36 82t-122 21q-42 0 -66 -1v-216h68q85 0 120.5 23.5t35.5 83.5zM573 935l-167 -146h-162l131 146h198z" />
    <glyph glyph-name="racute" unicode="&#x155;" horiz-adv-x="435" 
d="M418 439q-98 0 -176 -26v-413h-174v570h162v-47q68 62 188 62v-146zM483 777l-166 -146h-163l132 146h197z" />
    <glyph glyph-name="Rcommaaccent" unicode="&#x156;" horiz-adv-x="718" 
d="M706 0h-189l-152 265h-112v-265h-180v743q166 9 240 9q61 0 108 -5t93.5 -20.5t76.5 -41.5t48.5 -70t18.5 -103v-7q0 -148 -118 -205zM477 502v7q0 61 -36 82t-122 21q-42 0 -66 -1v-216h68q85 0 120.5 23.5t35.5 83.5zM472 -63l-96 -140h-152l68 140h180z" />
    <glyph glyph-name="rcommaaccent" unicode="&#x157;" horiz-adv-x="435" 
d="M418 439q-98 0 -176 -26v-413h-174v570h162v-47q68 62 188 62v-146zM311 -63l-95 -140h-152l67 140h180z" />
    <glyph glyph-name="Rcaron" unicode="&#x158;" horiz-adv-x="718" 
d="M706 0h-189l-152 265h-112v-265h-180v743q166 9 240 9q61 0 108 -5t93.5 -20.5t76.5 -41.5t48.5 -70t18.5 -103v-7q0 -148 -118 -205zM477 502v7q0 61 -36 82t-122 21q-42 0 -66 -1v-216h68q85 0 120.5 23.5t35.5 83.5zM116 934h152l87 -82l86 82h153l-135 -146h-208z
" />
    <glyph glyph-name="rcaron" unicode="&#x159;" horiz-adv-x="435" 
d="M418 439q-98 0 -176 -26v-413h-174v570h162v-47q68 62 188 62v-146zM-2 777h152l87 -82l86 82h153l-135 -146h-208z" />
    <glyph glyph-name="Sacute" unicode="&#x15a;" horiz-adv-x="646" 
d="M547 935l-167 -146h-163l132 146h198zM601 209q0 -113 -73.5 -169.5t-211.5 -56.5q-155 0 -251 24v122q154 -12 230 -12q63 0 91 19.5t28 61.5q0 31 -17.5 48.5t-70.5 40.5l-108 46q-87 37 -129.5 85.5t-42.5 135.5q0 108 72.5 156.5t217.5 48.5q117 0 227 -25v-120
q-138 12 -217 12q-60 0 -88 -14.5t-28 -51.5q0 -28 16.5 -44t67.5 -37l105 -43q96 -40 139 -91t43 -136z" />
    <glyph glyph-name="sacute" unicode="&#x15b;" horiz-adv-x="543" 
d="M512 777l-166 -146h-163l132 146h197zM507 167q0 -92 -61.5 -136.5t-190.5 -44.5q-126 0 -204 22v106q7 0 41.5 -3t77 -5.5t76.5 -2.5q51 0 72 12t21 39q0 24 -16 35t-74 33l-46 17q-83 32 -122 74t-39 110q0 89 59 125.5t176 36.5q127 0 202 -23v-109q-113 10 -186 10
q-48 0 -66 -6t-18 -30q0 -21 14.5 -31t63.5 -29l50 -18q95 -35 132.5 -75t37.5 -107z" />
    <glyph glyph-name="Scircumflex" unicode="&#x15c;" horiz-adv-x="646" 
d="M557 789h-152l-87 82l-86 -82h-153l135 146h208zM601 209q0 -113 -73.5 -169.5t-211.5 -56.5q-155 0 -251 24v122q154 -12 230 -12q63 0 91 19.5t28 61.5q0 31 -17.5 48.5t-70.5 40.5l-108 46q-87 37 -129.5 85.5t-42.5 135.5q0 108 72.5 156.5t217.5 48.5q117 0 227 -25
v-120q-138 12 -217 12q-60 0 -88 -14.5t-28 -51.5q0 -28 16.5 -44t67.5 -37l105 -43q96 -40 139 -91t43 -136z" />
    <glyph glyph-name="scircumflex" unicode="&#x15d;" horiz-adv-x="543" 
d="M509 631h-152l-87 82l-86 -82h-153l135 146h208zM507 167q0 -92 -61.5 -136.5t-190.5 -44.5q-126 0 -204 22v106q7 0 41.5 -3t77 -5.5t76.5 -2.5q51 0 72 12t21 39q0 24 -16 35t-74 33l-46 17q-83 32 -122 74t-39 110q0 89 59 125.5t176 36.5q127 0 202 -23v-109
q-113 10 -186 10q-48 0 -66 -6t-18 -30q0 -21 14.5 -31t63.5 -29l50 -18q95 -35 132.5 -75t37.5 -107z" />
    <glyph glyph-name="Scedilla" unicode="&#x15e;" horiz-adv-x="646" 
d="M442 -63l-131 -140h-159l105 140h185zM601 209q0 -113 -73.5 -169.5t-211.5 -56.5q-155 0 -251 24v122q154 -12 230 -12q63 0 91 19.5t28 61.5q0 31 -17.5 48.5t-70.5 40.5l-108 46q-87 37 -129.5 85.5t-42.5 135.5q0 108 72.5 156.5t217.5 48.5q117 0 227 -25v-120
q-138 12 -217 12q-60 0 -88 -14.5t-28 -51.5q0 -28 16.5 -44t67.5 -37l105 -43q96 -40 139 -91t43 -136z" />
    <glyph glyph-name="scedilla" unicode="&#x15f;" horiz-adv-x="543" 
d="M385 -63l-132 -140h-159l105 140h186zM507 167q0 -92 -61.5 -136.5t-190.5 -44.5q-126 0 -204 22v106q7 0 41.5 -3t77 -5.5t76.5 -2.5q51 0 72 12t21 39q0 24 -16 35t-74 33l-46 17q-83 32 -122 74t-39 110q0 89 59 125.5t176 36.5q127 0 202 -23v-109q-113 10 -186 10
q-48 0 -66 -6t-18 -30q0 -21 14.5 -31t63.5 -29l50 -18q95 -35 132.5 -75t37.5 -107z" />
    <glyph glyph-name="Scaron" unicode="&#x160;" horiz-adv-x="646" 
d="M84 934h153l86 -82l87 82h152l-134 -146h-209zM601 209q0 -113 -73.5 -169.5t-211.5 -56.5q-155 0 -251 24v122q154 -12 230 -12q63 0 91 19.5t28 61.5q0 31 -17.5 48.5t-70.5 40.5l-108 46q-87 37 -129.5 85.5t-42.5 135.5q0 108 72.5 156.5t217.5 48.5q117 0 227 -25
v-120q-138 12 -217 12q-60 0 -88 -14.5t-28 -51.5q0 -28 16.5 -44t67.5 -37l105 -43q96 -40 139 -91t43 -136z" />
    <glyph glyph-name="scaron" unicode="&#x161;" horiz-adv-x="543" 
d="M35 777h153l86 -82l87 82h152l-134 -146h-209zM507 167q0 -92 -61.5 -136.5t-190.5 -44.5q-126 0 -204 22v106q7 0 41.5 -3t77 -5.5t76.5 -2.5q51 0 72 12t21 39q0 24 -16 35t-74 33l-46 17q-83 32 -122 74t-39 110q0 89 59 125.5t176 36.5q127 0 202 -23v-109
q-113 10 -186 10q-48 0 -66 -6t-18 -30q0 -21 14.5 -31t63.5 -29l50 -18q95 -35 132.5 -75t37.5 -107z" />
    <glyph glyph-name="Tcedilla" unicode="&#x162;" horiz-adv-x="670" 
d="M644 607h-215v-607h-188v607h-215v136h618v-136zM433 -63l-95 -140h-152l67 140h180z" />
    <glyph glyph-name="tcedilla" unicode="&#x163;" horiz-adv-x="452" 
d="M421 1q-60 -16 -127 -16q-92 0 -133 40t-41 134v287l-99 9v115h99v144h174v-144h128v-124h-128v-285q0 -37 7.5 -47t39.5 -10q52 0 80 4v-107zM357 -63l-95 -140h-152l67 140h180z" />
    <glyph glyph-name="Tcaron" unicode="&#x164;" horiz-adv-x="670" 
d="M644 607h-215v-607h-188v607h-215v136h618v-136zM96 934h152l87 -82l86 82h153l-135 -146h-208z" />
    <glyph glyph-name="tcaron" unicode="&#x165;" horiz-adv-x="485" 
d="M421 1q-60 -16 -127 -16q-92 0 -133 40t-41 134v287l-99 9v115h99v144h174v-144h128v-124h-128v-285q0 -37 7.5 -47t39.5 -10q52 0 80 4v-107zM507 779l-67 -159h-100l33 159h134z" />
    <glyph glyph-name="Tbar" unicode="&#x166;" horiz-adv-x="670" 
d="M644 607h-215v-146h187v-111h-187v-350h-188v350h-186v111h186v146h-215v136h618v-136z" />
    <glyph glyph-name="tbar" unicode="&#x167;" horiz-adv-x="452" 
d="M422 289h-127v-128q0 -38 7.5 -48.5t39.5 -10.5q19 0 79 3v-104q-53 -15 -127 -15q-92 0 -132.5 39.5t-40.5 133.5v130l-99 6v101h99v68l-99 5v101h99v139h174v-139h127v-106h-127v-68h127v-107z" />
    <glyph glyph-name="Utilde" unicode="&#x168;" horiz-adv-x="763" 
d="M695 301q0 -158 -81 -238t-232 -80q-152 0 -233 80t-81 238v442h185v-437q0 -101 27.5 -141.5t101.5 -40.5t102 40.5t28 141.5v437h183v-442zM611 923q0 -139 -119 -139q-46 0 -105 31l-47 26q-34 20 -54 20q-31 0 -31 -47v-25h-99v25q0 71 33.5 104.5t89.5 33.5
q45 0 99 -29l47 -26q39 -21 57 -21t24.5 11t6.5 36v24h98v-24z" />
    <glyph glyph-name="utilde" unicode="&#x169;" 
d="M605 0h-164v46q-105 -61 -200 -61q-45 0 -78 13t-51 32.5t-28.5 50.5t-13.5 60t-3 68v361h174v-361q0 -53 13.5 -73t54.5 -20q43 0 122 32v422h174v-570zM564 766q0 -139 -118 -139q-48 0 -105 30l-47 26q-36 21 -54 21t-24.5 -11.5t-6.5 -36.5v-24h-99v24
q0 72 33.5 105.5t89.5 33.5q45 0 99 -29l47 -26q39 -21 57 -21t24.5 11t6.5 36v24h97v-24z" />
    <glyph glyph-name="Umacron" unicode="&#x16a;" horiz-adv-x="763" 
d="M695 301q0 -158 -81 -238t-232 -80q-152 0 -233 80t-81 238v442h185v-437q0 -101 27.5 -141.5t101.5 -40.5t102 40.5t28 141.5v437h183v-442zM586 808h-408v100h408v-100z" />
    <glyph glyph-name="umacron" unicode="&#x16b;" 
d="M605 0h-164v46q-105 -61 -200 -61q-45 0 -78 13t-51 32.5t-28.5 50.5t-13.5 60t-3 68v361h174v-361q0 -53 13.5 -73t54.5 -20q43 0 122 32v422h174v-570zM542 653h-409v99h409v-99z" />
    <glyph glyph-name="Ubreve" unicode="&#x16c;" horiz-adv-x="763" 
d="M695 301q0 -158 -81 -238t-232 -80q-152 0 -233 80t-81 238v442h185v-437q0 -101 27.5 -141.5t101.5 -40.5t102 40.5t28 141.5v437h183v-442zM590 938q-9 -80 -67 -119.5t-141 -39.5t-141 39.5t-67 119.5h102q10 -77 106 -77q95 0 107 77h101z" />
    <glyph glyph-name="ubreve" unicode="&#x16d;" 
d="M605 0h-164v46q-105 -61 -200 -61q-45 0 -78 13t-51 32.5t-28.5 50.5t-13.5 60t-3 68v361h174v-361q0 -53 13.5 -73t54.5 -20q43 0 122 32v422h174v-570zM545 788q-9 -80 -67 -119.5t-141 -39.5q-82 0 -140 39.5t-67 119.5h101q10 -77 106 -77t108 77h100z" />
    <glyph glyph-name="Uring" unicode="&#x16e;" horiz-adv-x="763" 
d="M695 301q0 -158 -81 -238t-232 -80q-152 0 -233 80t-81 238v442h185v-437q0 -101 27.5 -141.5t101.5 -40.5t102 40.5t28 141.5v437h183v-442zM524 896q0 -58 -39 -90t-102 -32q-64 0 -104 32t-40 90t40 90t104 32q63 0 102 -32t39 -90zM438 896q0 48 -55 48
q-56 0 -56 -48t56 -48q55 0 55 48z" />
    <glyph glyph-name="uring" unicode="&#x16f;" 
d="M605 0h-164v46q-105 -61 -200 -61q-45 0 -78 13t-51 32.5t-28.5 50.5t-13.5 60t-3 68v361h174v-361q0 -53 13.5 -73t54.5 -20q43 0 122 32v422h174v-570zM481 738q0 -58 -39 -89.5t-102 -31.5q-64 0 -104 32t-40 89q0 58 40 90t104 32q63 0 102 -32t39 -90zM395 739
q0 48 -55 48q-56 0 -56 -48t56 -48q55 0 55 48z" />
    <glyph glyph-name="Uhungarumlaut" unicode="&#x170;" horiz-adv-x="763" 
d="M695 301q0 -158 -81 -238t-232 -80q-152 0 -233 80t-81 238v442h185v-437q0 -101 27.5 -141.5t101.5 -40.5t102 40.5t28 141.5v437h183v-442zM752 935l-166 -146h-151l133 146h184zM291 935h185l-166 -146h-151z" />
    <glyph glyph-name="uhungarumlaut" unicode="&#x171;" 
d="M605 0h-164v46q-105 -61 -200 -61q-45 0 -78 13t-51 32.5t-28.5 50.5t-13.5 60t-3 68v361h174v-361q0 -53 13.5 -73t54.5 -20q43 0 122 32v422h174v-570zM705 777l-167 -146h-150l133 146h184zM244 777h185l-167 -146h-150z" />
    <glyph glyph-name="Uogonek" unicode="&#x172;" horiz-adv-x="763" 
d="M695 301q0 -260 -214 -308q-95 -41 -95 -82q0 -35 53 -35q19 0 84 5v-81q-56 -17 -135 -17q-151 0 -151 99q0 62 75 106q-119 17 -181.5 95.5t-62.5 217.5v442h185v-437q0 -101 27.5 -141.5t101.5 -40.5t102 40.5t28 141.5v437h183v-442z" />
    <glyph glyph-name="uogonek" unicode="&#x173;" 
d="M605 -200q-56 -17 -135 -17q-150 0 -150 99q0 34 32 67.5t89 56.5v40q-105 -61 -200 -61q-45 0 -78 13t-51 32.5t-28.5 50.5t-13.5 60t-3 68v361h174v-361q0 -53 13.5 -73t54.5 -20q43 0 122 32v422h174v-570q-80 -29 -108.5 -49.5t-28.5 -39.5q0 -35 54 -35q18 0 83 5
v-81z" />
    <glyph glyph-name="Wcircumflex" unicode="&#x174;" horiz-adv-x="995" 
d="M958 743l-124 -743h-227l-87 353q-6 26 -21 102h-3q-15 -76 -21 -102l-86 -353h-228l-124 743h186l61 -406q7 -50 18 -142h4q4 18 13.5 63.5t15.5 68.5l67 276h193l67 -278q13 -52 29 -130h4q5 54 17 142l62 406h184zM737 789h-152l-87 82l-86 -82h-153l135 146h209z" />
    <glyph glyph-name="wcircumflex" unicode="&#x175;" horiz-adv-x="936" 
d="M908 570l-120 -570h-215l-76 244q-20 67 -27 114h-4q-7 -50 -28 -114l-76 -244h-214l-120 570h176l52 -282q16 -88 18 -136h4q26 106 35 136l63 199h184l63 -199q9 -27 22 -80t14 -56h4q2 40 17 137l52 281h176zM707 631h-153l-86 82l-87 -82h-152l135 146h208z" />
    <glyph glyph-name="Ycircumflex" unicode="&#x176;" horiz-adv-x="706" 
d="M692 743l-248 -475v-268h-182v268l-248 475h191l100 -197q27 -58 47 -114h5q10 32 49 114l100 197h186zM593 789h-152l-87 82l-86 -82h-152l135 146h208z" />
    <glyph glyph-name="ycircumflex" unicode="&#x177;" horiz-adv-x="637" 
d="M616 570l-181 -574q-34 -116 -86 -164t-152 -48q-98 0 -161 13v111q49 -2 108 -2q31 0 46 14.5t30 54.5l10 31l-207 564h187l84 -293q8 -28 19.5 -82.5t14.5 -68.5h2q18 92 33 152l76 292h177zM566 631h-152l-87 82l-86 -82h-153l135 146h209z" />
    <glyph glyph-name="Ydieresis" unicode="&#x178;" horiz-adv-x="706" 
d="M692 743l-248 -475v-268h-182v268l-248 475h191l100 -197q27 -58 47 -114h5q10 32 49 114l100 197h186zM551 800h-139v127h139v-127zM297 927v-127h-140v127h140z" />
    <glyph glyph-name="Zacute" unicode="&#x179;" horiz-adv-x="658" 
d="M607 0h-556v142l331 462h-322v139h538v-144l-330 -460h339v-139zM572 935l-166 -146h-163l132 146h197z" />
    <glyph glyph-name="zacute" unicode="&#x17a;" horiz-adv-x="548" 
d="M505 0h-465v128l269 317h-260v125h455v-130l-267 -317h268v-123zM523 777l-166 -146h-163l132 146h197z" />
    <glyph glyph-name="Zdotaccent" unicode="&#x17b;" horiz-adv-x="658" 
d="M607 0h-556v142l331 462h-322v139h538v-144l-330 -460h339v-139zM418 800h-179v127h179v-127z" />
    <glyph glyph-name="zdotaccent" unicode="&#x17c;" horiz-adv-x="548" 
d="M505 0h-465v128l269 317h-260v125h455v-130l-267 -317h268v-123zM375 651h-179v127h179v-127z" />
    <glyph glyph-name="Zcaron" unicode="&#x17d;" horiz-adv-x="658" 
d="M607 0h-556v142l331 462h-322v139h538v-144l-330 -460h339v-139zM102 935h152l86 -82l87 82h152l-134 -146h-208z" />
    <glyph glyph-name="zcaron" unicode="&#x17e;" horiz-adv-x="548" 
d="M505 0h-465v128l269 317h-260v125h455v-130l-267 -317h268v-123zM51 777h153l86 -82l87 82h152l-134 -146h-209z" />
    <glyph glyph-name="florin" unicode="&#x192;" horiz-adv-x="662" 
d="M613 743l-12 -99q-53 3 -72 3q-36 0 -51 -12t-21 -53l-18 -130h147l-15 -120h-149l-43 -322q-13 -95 -63 -133t-133 -38q-63 0 -134 15l13 100q48 -3 74 -3q33 0 48 11.5t21 52.5l43 317h-132l16 120h132l19 135q13 96 63.5 134t135.5 38q67 0 131 -16z" />
    <glyph glyph-name="Aringacute" unicode="&#x1fa;" horiz-adv-x="748" 
d="M727 0h-196l-53 187h-211l-54 -187h-192l207 743h290zM453 321l-54 197q-14 54 -23 114h-7q-11 -72 -23 -114l-53 -197h160zM516 882q0 -58 -39 -89.5t-102 -31.5q-64 0 -104 32t-40 89q0 58 40 90t104 32q63 0 102 -32t39 -90zM430 883q0 48 -55 48q-56 0 -56 -48
q0 -49 56 -49q55 0 55 49zM611 1166l-167 -146h-162l131 146h198z" />
    <glyph glyph-name="aringacute" unicode="&#x1fb;" horiz-adv-x="609" 
d="M547 0h-159v37q-77 -52 -179 -52q-81 0 -124 41t-43 122v23q0 44 14 75.5t36.5 50t60.5 28.5t75.5 13t91.5 3h53v31q0 53 -19 68.5t-86 15.5q-93 0 -184 -10v104q32 12 94 23.5t126 11.5q133 0 188 -48.5t55 -164.5v-372zM379 123v128h-58q-64 0 -88.5 -14t-24.5 -60v-23
q0 -58 65 -58q60 0 106 27zM456 728q0 -58 -39 -89.5t-102 -31.5q-64 0 -104 32t-40 89q0 58 40 90.5t104 32.5q63 0 102 -32.5t39 -90.5zM370 729q0 48 -55 48q-56 0 -56 -48t56 -48q25 0 40 12t15 36zM559 1012l-166 -146h-163l132 146h197z" />
    <glyph glyph-name="AEacute" unicode="&#x1fc;" horiz-adv-x="1031" 
d="M230 0h-190l201 743h743v-136h-319v-162h298v-129h-298v-181h319v-135h-506v187h-195zM478 320v310h-90q-5 -17 -12.5 -54.5t-12.5 -54.5l-54 -201h169zM826 935l-166 -146h-163l132 146h197z" />
    <glyph glyph-name="aeacute" unicode="&#x1fd;" horiz-adv-x="963" 
d="M893 9q-94 -23 -231 -23q-157 0 -220 67q-97 -67 -233 -67q-167 0 -167 162v23q0 44 14 75.5t36.5 50t60.5 28.5t75.5 13t91.5 3h53v31q0 51 -19 67.5t-85 16.5q-80 0 -185 -9v103q32 12 93.5 23.5t126.5 11.5q124 0 175 -45q64 44 169 44q62 0 110 -16t78 -42
t49.5 -63.5t27 -77t7.5 -85.5v-62h-374v-8q0 -65 23.5 -93t108.5 -28q124 0 215 11v-111zM750 333v8q0 56 -20.5 88t-81.5 32q-59 0 -80 -32t-21 -88v-8h203zM379 123v128h-58q-64 0 -88.5 -14t-24.5 -60v-23q0 -58 65 -58q57 0 106 27zM728 777l-167 -146h-162l131 146h198
z" />
    <glyph glyph-name="Oslashacute" unicode="&#x1fe;" horiz-adv-x="745" 
d="M696 333q0 -350 -324 -350q-113 0 -189 44l-20 -27h-137l78 103q-55 86 -55 230v76q0 350 323 350q117 0 192 -46l23 30h138l-82 -109q53 -84 53 -225v-76zM233 334q0 -32 3 -57l229 304q-33 33 -93 33q-69 0 -104 -46.5t-35 -158.5v-75zM512 334v75q0 19 -2 49
l-228 -300q31 -30 90 -30q70 0 105 46.5t35 159.5zM596 935l-167 -146h-163l132 146h198z" />
    <glyph glyph-name="oslashacute" unicode="&#x1ff;" horiz-adv-x="642" 
d="M595 253q0 -268 -275 -268q-100 0 -167 38l-30 -38h-100l72 90q-48 65 -48 178v63q0 269 273 269q98 0 160 -34l28 34h100l-68 -83q55 -67 55 -186v-63zM541 777l-167 -146h-163l132 146h198zM421 253v63q0 14 -2 36l-170 -211q23 -24 71 -24q54 0 77.5 30.5t23.5 105.5z
M220 229l165 204q-23 19 -65 19q-53 0 -76.5 -30.5t-23.5 -105.5v-87z" />
    <glyph glyph-name="Scommaaccent" unicode="&#x218;" horiz-adv-x="646" 
d="M432 -63l-95 -140h-152l67 140h180zM601 209q0 -113 -73.5 -169.5t-211.5 -56.5q-155 0 -251 24v122q154 -12 230 -12q63 0 91 19.5t28 61.5q0 31 -17.5 48.5t-70.5 40.5l-108 46q-87 37 -129.5 85.5t-42.5 135.5q0 108 72.5 156.5t217.5 48.5q117 0 227 -25v-120
q-138 12 -217 12q-60 0 -88 -14.5t-28 -51.5q0 -28 16.5 -44t67.5 -37l105 -43q96 -40 139 -91t43 -136z" />
    <glyph glyph-name="scommaaccent" unicode="&#x219;" horiz-adv-x="543" 
d="M366 -63l-96 -140h-152l68 140h180zM507 167q0 -92 -61.5 -136.5t-190.5 -44.5q-126 0 -204 22v106q7 0 41.5 -3t77 -5.5t76.5 -2.5q51 0 72 12t21 39q0 24 -16 35t-74 33l-46 17q-83 32 -122 74t-39 110q0 89 59 125.5t176 36.5q127 0 202 -23v-109q-113 10 -186 10
q-48 0 -66 -6t-18 -30q0 -21 14.5 -31t63.5 -29l50 -18q95 -35 132.5 -75t37.5 -107z" />
    <glyph glyph-name="Tcommaaccent" unicode="&#x21a;" horiz-adv-x="670" 
d="M644 607h-215v-607h-188v607h-215v136h618v-136zM433 -63l-95 -140h-152l67 140h180z" />
    <glyph glyph-name="tcommaaccent" unicode="&#x21b;" horiz-adv-x="452" 
d="M421 1q-60 -16 -127 -16q-92 0 -133 40t-41 134v287l-99 9v115h99v144h174v-144h128v-124h-128v-285q0 -37 7.5 -47t39.5 -10q52 0 80 4v-107zM357 -63l-95 -140h-152l67 140h180z" />
    <glyph glyph-name="circumflex" unicode="&#x2c6;" horiz-adv-x="545" 
d="M511 631h-152l-87 82l-86 -82h-153l135 146h208z" />
    <glyph glyph-name="caron" unicode="&#x2c7;" horiz-adv-x="545" 
d="M33 777h153l86 -82l87 82h152l-135 -146h-208z" />
    <glyph glyph-name="uni02C9" unicode="&#x2c9;" horiz-adv-x="503" 
d="M456 653h-409v99h409v-99z" />
    <glyph glyph-name="breve" unicode="&#x2d8;" horiz-adv-x="513" 
d="M464 788q-9 -80 -67 -119.5t-141 -39.5q-82 0 -140 39.5t-67 119.5h101q10 -77 106 -77t108 77h100z" />
    <glyph glyph-name="dotaccent" unicode="&#x2d9;" horiz-adv-x="426" 
d="M303 651h-180v127h180v-127z" />
    <glyph glyph-name="ring" unicode="&#x2da;" horiz-adv-x="445" 
d="M365 738q0 -58 -39 -89.5t-102 -31.5q-64 0 -104 32t-40 89q0 58 40 90t104 32q63 0 102 -32t39 -90zM279 739q0 48 -55 48q-56 0 -56 -48t56 -48q55 0 55 48z" />
    <glyph glyph-name="ogonek" unicode="&#x2db;" horiz-adv-x="458" 
d="M380 -200q-56 -17 -135 -17q-151 0 -151 99q0 41 40 74.5t118 53.5l128 -10q-80 -29 -108.5 -49.5t-28.5 -39.5q0 -35 53 -35q19 0 84 5v-81z" />
    <glyph glyph-name="tilde" unicode="&#x2dc;" horiz-adv-x="516" 
d="M487 766q0 -139 -119 -139q-48 0 -105 30l-47 26q-36 21 -54 21q-31 0 -31 -48v-24h-98v24q0 72 33 105.5t89 33.5q45 0 99 -29l48 -26q37 -21 57 -21q17 0 23.5 11t6.5 36v24h98v-24z" />
    <glyph glyph-name="hungarumlaut" unicode="&#x2dd;" horiz-adv-x="621" 
d="M675 776l-167 -146h-150l132 146h185zM216 776h184l-166 -146h-150z" />
    <glyph glyph-name="uni037E" unicode="&#x37e;" horiz-adv-x="280" 
d="M223 258h-164v165h164v-165z" />
    <glyph glyph-name="uni03A9" unicode="&#x3a9;" horiz-adv-x="747" 
d="M701 408q0 -200 -161 -260v-35h149v-113h-281v213q111 27 111 182v58q0 88 -38 124.5t-108 36.5t-108 -36.5t-38 -124.5v-58q0 -155 111 -182v-213h-280v113h148v35q-161 60 -161 260l1 57q0 148 84.5 221t242.5 73q159 0 243.5 -73t84.5 -221v-57z" />
    <glyph glyph-name="uni03BC" unicode="&#x3bc;" horiz-adv-x="711" 
d="M620 0h-164v46q-82 -44 -147 -51q-29 -1 -53 3v-200h-174v772h174v-361q0 -53 13.5 -73t54.5 -20q43 0 122 32v422h174v-570z" />
    <glyph glyph-name="pi" unicode="&#x3c0;" horiz-adv-x="732" 
d="M690 -7q-35 -8 -89 -8q-91 0 -129 39t-38 131v267h-139v-422h-175v422h-83v148h653v-148h-82v-270q0 -28 7.5 -38t30.5 -10q29 0 44 1v-112z" />
    <glyph glyph-name="Wgrave" unicode="&#x1e80;" horiz-adv-x="995" 
d="M958 743l-124 -743h-227l-87 353q-6 26 -21 102h-3q-15 -76 -21 -102l-86 -353h-228l-124 743h186l61 -406q7 -50 18 -142h4q4 18 13.5 63.5t15.5 68.5l67 276h193l67 -278q13 -52 29 -130h4q5 54 17 142l62 406h184zM609 789h-162l-167 146h198z" />
    <glyph glyph-name="wgrave" unicode="&#x1e81;" horiz-adv-x="936" 
d="M908 570l-120 -570h-215l-76 244q-20 67 -27 114h-4q-7 -50 -28 -114l-76 -244h-214l-120 570h176l52 -282q16 -88 18 -136h4q26 106 35 136l63 199h184l63 -199q9 -27 22 -80t14 -56h4q2 40 17 137l52 281h176zM574 631h-162l-167 146h198z" />
    <glyph glyph-name="Wacute" unicode="&#x1e82;" horiz-adv-x="995" 
d="M958 743l-124 -743h-227l-87 353q-6 26 -21 102h-3q-15 -76 -21 -102l-86 -353h-228l-124 743h186l61 -406q7 -50 18 -142h4q4 18 13.5 63.5t15.5 68.5l67 276h193l67 -278q13 -52 29 -130h4q5 54 17 142l62 406h184zM731 935l-167 -146h-163l132 146h198z" />
    <glyph glyph-name="wacute" unicode="&#x1e83;" horiz-adv-x="936" 
d="M908 570l-120 -570h-215l-76 244q-20 67 -27 114h-4q-7 -50 -28 -114l-76 -244h-214l-120 570h176l52 -282q16 -88 18 -136h4q26 106 35 136l63 199h184l63 -199q9 -27 22 -80t14 -56h4q2 40 17 137l52 281h176zM701 777l-167 -146h-162l131 146h198z" />
    <glyph glyph-name="Wdieresis" unicode="&#x1e84;" horiz-adv-x="995" 
d="M958 743l-124 -743h-227l-87 353q-6 26 -21 102h-3q-15 -76 -21 -102l-86 -353h-228l-124 743h186l61 -406q7 -50 18 -142h4q4 18 13.5 63.5t15.5 68.5l67 276h193l67 -278q13 -52 29 -130h4q5 54 17 142l62 406h184zM695 800h-140v127h140v-127zM441 927v-127h-140v127
h140z" />
    <glyph glyph-name="wdieresis" unicode="&#x1e85;" horiz-adv-x="936" 
d="M908 570l-120 -570h-215l-76 244q-20 67 -27 114h-4q-7 -50 -28 -114l-76 -244h-214l-120 570h176l52 -282q16 -88 18 -136h4q26 106 35 136l63 199h184l63 -199q9 -27 22 -80t14 -56h4q2 40 17 137l52 281h176zM665 645h-140v127h140v-127zM411 772v-127h-141v127h141z
" />
    <glyph glyph-name="Ygrave" unicode="&#x1ef2;" horiz-adv-x="706" 
d="M692 743l-248 -475v-268h-182v268l-248 475h191l100 -197q27 -58 47 -114h5q10 32 49 114l100 197h186zM468 788h-162l-167 146h198z" />
    <glyph glyph-name="ygrave" unicode="&#x1ef3;" horiz-adv-x="637" 
d="M616 570l-181 -574q-34 -116 -86 -164t-152 -48q-98 0 -161 13v111q49 -2 108 -2q31 0 46 14.5t30 54.5l10 31l-207 564h187l84 -293q8 -28 19.5 -82.5t14.5 -68.5h2q18 92 33 152l76 292h177zM444 631h-163l-167 146h198z" />
    <glyph glyph-name="figuredash" unicode="&#x2012;" horiz-adv-x="723" 
d="M666 225h-609v112h609v-112z" />
    <glyph glyph-name="endash" unicode="&#x2013;" horiz-adv-x="474" 
d="M416 234h-359v122h359v-122z" />
    <glyph glyph-name="emdash" unicode="&#x2014;" horiz-adv-x="650" 
d="M592 234h-535v122h535v-122z" />
    <glyph glyph-name="quoteleft" unicode="&#x2018;" horiz-adv-x="256" 
d="M236 779l-60 -256h-156l96 256h120z" />
    <glyph glyph-name="quoteright" unicode="&#x2019;" horiz-adv-x="256" 
d="M236 779l-95 -256h-121l60 256h156z" />
    <glyph glyph-name="quotesinglbase" unicode="&#x201a;" horiz-adv-x="256" 
d="M236 157l-95 -256h-121l60 256h156z" />
    <glyph glyph-name="quotedblleft" unicode="&#x201c;" horiz-adv-x="480" 
d="M460 779l-61 -256h-156l96 256h121zM115 779h121l-60 -256h-156z" />
    <glyph glyph-name="quotedblright" unicode="&#x201d;" horiz-adv-x="480" 
d="M20 523l61 256h156l-96 -256h-121zM365 523h-121l60 256h156z" />
    <glyph glyph-name="quotedblbase" unicode="&#x201e;" horiz-adv-x="480" 
d="M460 157l-95 -256h-121l61 256h155zM80 157h156l-95 -256h-121z" />
    <glyph glyph-name="dagger" unicode="&#x2020;" horiz-adv-x="539" 
d="M480 452h-127v-582h-174v582h-120v132h120v194h174v-194h127v-132z" />
    <glyph glyph-name="daggerdbl" unicode="&#x2021;" horiz-adv-x="539" 
d="M480 214h-127v-344h-174v344h-120v132h120v116h-120v132h120v183h174v-183h127v-132h-127v-116h127v-132z" />
    <glyph glyph-name="bullet" unicode="&#x2022;" horiz-adv-x="513" 
d="M447 367q0 -76 -56 -130t-135 -54t-134.5 54t-55.5 130q0 77 55.5 131t134.5 54t135 -54t56 -131z" />
    <glyph glyph-name="onedotenleader" unicode="&#x2024;" horiz-adv-x="295" 
d="M235 0h-175v164h175v-164z" />
    <glyph glyph-name="twodotenleader" unicode="&#x2025;" horiz-adv-x="569" 
d="M509 0h-176v164h176v-164zM235 164v-164h-175v164h175z" />
    <glyph glyph-name="ellipsis" unicode="&#x2026;" horiz-adv-x="942" 
d="M238 0h-175v164h175v-164zM558 0h-174v164h174v-164zM879 0h-175v164h175v-164z" />
    <glyph glyph-name="perthousand" unicode="&#x2030;" horiz-adv-x="1593" 
d="M1545 202q0 -212 -196 -212q-197 0 -197 212v37q0 212 197 212q196 0 196 -212v-37zM1415 202v37q0 67 -17 92t-49 25q-34 0 -50.5 -24.5t-16.5 -92.5v-37q0 -68 16.5 -92.5t50.5 -24.5q32 0 49 25t17 92zM1099 202q0 -212 -197 -212q-196 0 -196 212v37q0 212 196 212
q197 0 197 -212v-37zM969 202v37q0 67 -17 92t-50 25t-49.5 -25t-16.5 -92v-37q0 -68 16.5 -92.5t49.5 -24.5t50 25t17 92zM892 745l-496 -745h-147l497 745h146zM440 511q0 -212 -196 -212t-196 212v36q0 212 196 212t196 -212v-36zM310 511v36q0 69 -15 93.5t-51 24.5
t-51 -25.5t-15 -92.5v-36q0 -68 15 -92.5t51 -24.5t51 24.5t15 92.5z" />
    <glyph glyph-name="guilsinglleft" unicode="&#x2039;" horiz-adv-x="425" 
d="M378 70h-180l-152 222l152 221h180l-148 -221z" />
    <glyph glyph-name="guilsinglright" unicode="&#x203a;" horiz-adv-x="425" 
d="M379 292l-153 -222h-179l148 222l-148 221h179z" />
    <glyph glyph-name="exclamdbl" unicode="&#x203c;" horiz-adv-x="624" 
d="M544 0h-179v164h179v-164zM551 779l-16 -557h-161l-16 557h193zM258 0h-179v164h179v-164zM266 779l-16 -557h-161l-17 557h194z" />
    <glyph glyph-name="fraction" unicode="&#x2044;" horiz-adv-x="556" 
d="M600 745l-497 -745h-147l496 745h148z" />
    <glyph glyph-name="zero.superior" unicode="&#x2070;" horiz-adv-x="491" 
d="M444 544q0 -216 -197 -216t-197 216v35q0 216 197 216t197 -216v-35zM314 543v36q0 70 -17 95t-50 25q-34 0 -50.5 -25t-16.5 -95v-36q0 -70 16.5 -95t50.5 -25q33 0 50 25.5t17 94.5z" />
    <glyph glyph-name="i.superior" unicode="&#x2071;" horiz-adv-x="232" 
d="M56 654h121v-347h-121v347zM179 698h-126v81h126v-81z" />
    <glyph glyph-name="four.superior" unicode="&#x2074;" horiz-adv-x="474" 
d="M374 338h-128v98h-213v82l236 267h105v-265h60v-84h-60v-98zM253 520v136l-119 -136h119z" />
    <glyph glyph-name="five.superior" unicode="&#x2075;" horiz-adv-x="451" 
d="M388 697h-208l-8 -81h43q105 0 146 -30.5t41 -103.5v-8q0 -146 -190 -146q-93 0 -160 18v77q81 -9 132 -9q50 0 69 12.5t19 45.5v10q0 30 -17.5 40.5t-68.5 10.5h-131l23 252h310v-88z" />
    <glyph glyph-name="six.superior" unicode="&#x2076;" horiz-adv-x="477" 
d="M402 777v-77q-78 6 -145 6q-54 0 -69 -17t-15 -61v-13q32 9 78 9q85 0 130 -27.5t45 -103.5v-15q0 -79 -51.5 -114.5t-136.5 -35.5q-102 0 -147 45.5t-45 144.5v87q0 96 41.5 143t153.5 47q83 0 161 -18zM299 478v14q0 34 -14.5 46t-47.5 12t-64 -7v-46q0 -50 16 -68.5
t50 -18.5q60 0 60 68z" />
    <glyph glyph-name="seven.superior" unicode="&#x2077;" horiz-adv-x="448" 
d="M55 697v88h350v-96l-205 -351h-135l213 359h-223z" />
    <glyph glyph-name="eight.superior" unicode="&#x2078;" horiz-adv-x="492" 
d="M439 471q0 -46 -14.5 -76t-44 -44t-61 -18.5t-78.5 -4.5q-46 0 -76.5 4.5t-60 18.5t-44 44t-14.5 76q0 65 50 97q-49 33 -49 102q0 72 51 98.5t146 26.5q93 0 143 -27.5t50 -103.5q0 -63 -49 -96q51 -31 51 -97zM314 473q0 32 -10.5 45.5t-36.5 13.5h-50q-26 0 -36 -13.5
t-10 -45.5q0 -39 17.5 -52t55.5 -13q36 0 53 13t17 52zM217 607h50q25 0 35 13t10 39q0 33 -17 44.5t-54 11.5q-35 0 -52 -12t-17 -44q0 -26 10 -39t35 -13z" />
    <glyph glyph-name="nine.superior" unicode="&#x2079;" horiz-adv-x="477" 
d="M70 345v77q86 -7 148 -7q51 0 66.5 17.5t15.5 61.5v13q-34 -8 -78 -8q-86 0 -131 27t-45 103v16q0 78 52 114t137 36q102 0 146.5 -46t44.5 -145v-88q0 -95 -41 -141.5t-153 -46.5q-96 0 -162 17zM300 579v47q0 50 -16 68t-51 18q-60 0 -60 -67v-15q0 -33 14.5 -45
t46.5 -12q33 0 66 6z" />
    <glyph glyph-name="parenleft.superior" unicode="&#x207d;" horiz-adv-x="287" 
d="M246 259h-112q-81 110 -81 262v5q0 152 81 264h112q-75 -117 -75 -264v-5q0 -147 75 -262z" />
    <glyph glyph-name="parenright.superior" unicode="&#x207e;" horiz-adv-x="287" 
d="M234 521q0 -151 -82 -262h-111q75 115 75 262v5q0 147 -75 264h111q82 -114 82 -264v-5z" />
    <glyph glyph-name="n.superior" unicode="&#x207f;" horiz-adv-x="460" 
d="M407 307h-122v215q0 30 -8 42t-32 12q-22 0 -70 -18v-251h-122v347h114v-27q59 36 118 36q41 0 66.5 -10.5t37 -32.5t15 -43t3.5 -53v-217z" />
    <glyph glyph-name="zero.inferior" unicode="&#x2080;" horiz-adv-x="491" 
d="M444 0q0 -216 -197 -216t-197 216v35q0 216 197 216t197 -216v-35zM314 -1v36q0 70 -17 95t-50 25q-34 0 -50.5 -25t-16.5 -95v-36q0 -70 16.5 -95t50.5 -25q33 0 50 25.5t17 94.5z" />
    <glyph glyph-name="one.inferior" unicode="&#x2081;" horiz-adv-x="407" 
d="M353 -206h-291v85l80 4v246l-81 -26v96l118 44h93v-360l81 -4v-85z" />
    <glyph glyph-name="two.inferior" unicode="&#x2082;" horiz-adv-x="454" 
d="M57 158v75q65 18 165 18q95 0 139 -28.5t44 -90.5q0 -47 -29 -78.5t-102 -64.5q-64 -29 -81 -46.5t-17 -53.5v-4h220v-91h-346v55q0 81 30.5 123t109.5 81q57 28 71 40.5t14 34.5q0 20 -16.5 28.5t-58.5 8.5q-66 0 -143 -7z" />
    <glyph glyph-name="three.inferior" unicode="&#x2083;" horiz-adv-x="450" 
d="M212 -216q-45 0 -93.5 6.5t-66.5 13.5v74q66 -6 145 -6q42 0 59 10.5t17 42.5v9q0 25 -13 36t-54 11h-126v81h127q40 0 53 12t13 37v6q0 27 -16 37t-60 10q-9 0 -145 -7v74q56 20 160 20q94 0 141.5 -28t47.5 -96v-6q0 -71 -55 -98q55 -25 55 -95v-9q0 -72 -45.5 -103.5
t-143.5 -31.5z" />
    <glyph glyph-name="four.inferior" unicode="&#x2084;" horiz-adv-x="474" 
d="M374 -206h-128v98h-213v82l236 267h105v-265h60v-84h-60v-98zM253 -24v136l-119 -136h119z" />
    <glyph glyph-name="five.inferior" unicode="&#x2085;" horiz-adv-x="451" 
d="M388 153h-208l-8 -81h43q105 0 146 -30.5t41 -103.5v-8q0 -146 -190 -146q-93 0 -160 18v77q81 -9 132 -9q50 0 69 12.5t19 45.5v10q0 30 -17.5 40.5t-68.5 10.5h-131l23 252h310v-88z" />
    <glyph glyph-name="six.inferior" unicode="&#x2086;" horiz-adv-x="477" 
d="M402 233v-77q-78 6 -145 6q-54 0 -69 -17t-15 -61v-13q31 9 78 9q85 0 130 -27.5t45 -103.5v-15q0 -79 -51.5 -114.5t-136.5 -35.5q-102 0 -147 45.5t-45 144.5v87q0 96 41.5 143t153.5 47q83 0 161 -18zM299 -66v14q0 34 -14.5 46t-47.5 12t-64 -7v-46q0 -50 16 -68.5
t50 -18.5q60 0 60 68z" />
    <glyph glyph-name="seven.inferior" unicode="&#x2087;" horiz-adv-x="448" 
d="M55 153v88h350v-96l-205 -351h-135l213 359h-223z" />
    <glyph glyph-name="eight.inferior" unicode="&#x2088;" horiz-adv-x="492" 
d="M439 -79q0 -36 -10.5 -61.5t-27 -40t-44 -22.5t-53.5 -10.5t-63 -2.5q-36 0 -61.5 2.5t-52.5 10.5t-43.5 22.5t-27 40t-10.5 61.5v6q0 64 51 97q-50 32 -50 95v6q0 73 51 99.5t146 26.5q93 0 143.5 -26.5t50.5 -99.5v-6q0 -63 -49 -95q50 -32 50 -97v-6zM314 -76v4
q0 32 -10 45.5t-36 13.5h-50q-26 0 -36 -13.5t-10 -45.5v-4q0 -36 17 -48.5t55 -12.5q36 0 53 12.5t17 48.5zM312 115v5q0 29 -17.5 40t-53.5 11q-34 0 -51 -11.5t-17 -39.5v-5q0 -27 9.5 -40t35.5 -13h50q25 0 34.5 13t9.5 40z" />
    <glyph glyph-name="nine.inferior" unicode="&#x2089;" horiz-adv-x="477" 
d="M70 -199v77q86 -7 148 -7q51 0 66.5 17.5t15.5 61.5v13q-34 -8 -78 -8q-86 0 -131 27t-45 103v16q0 78 52 114t137 36q102 0 146.5 -46t44.5 -145v-88q0 -95 -41 -141.5t-153 -46.5q-96 0 -162 17zM300 35v47q0 50 -16 68t-51 18q-60 0 -60 -67v-15q0 -33 14.5 -45
t46.5 -12q33 0 66 6z" />
    <glyph glyph-name="parenleft.inferior" unicode="&#x208d;" horiz-adv-x="287" 
d="M246 -232h-112q-81 110 -81 262v5q0 152 81 264h112q-75 -117 -75 -264v-5q0 -147 75 -262z" />
    <glyph glyph-name="parenright.inferior" unicode="&#x208e;" horiz-adv-x="287" 
d="M234 30q0 -151 -82 -262h-111q75 115 75 262v5q0 147 -75 264h111q82 -114 82 -264v-5z" />
    <glyph glyph-name="colonmonetary" unicode="&#x20a1;" horiz-adv-x="534" 
d="M496 563v-119q-12 1 -43.5 3t-61 3.5t-53.5 1.5q-61 0 -87.5 -27t-26.5 -107v-65q0 -79 26.5 -107.5t87.5 -28.5q60 0 158 8v-118q-19 -6 -67 -12v-113h-94v104q-11 -1 -29 -1q-23 0 -41 3v-106h-94v130q-120 58 -120 241v65q0 180 120 240v131h94v-107q18 3 43 3
q17 0 27 -1v105h94v-114q38 -5 67 -12z" />
    <glyph glyph-name="franc" unicode="&#x20a3;" horiz-adv-x="638" 
d="M272 0h-187v131h-47v99h47v513h506v-137h-319v-162h307v-132h-307v-82h160v-99h-160v-131z" />
    <glyph glyph-name="lira" unicode="&#x20a4;" 
d="M612 739v-128q-117 11 -188 11q-72 0 -91.5 -24t-19.5 -100v-29h209v-78h-209v-68h209v-77h-209v-28q0 -49 -25 -85h324v-133h-526v109q46 45 46 109v28h-75v77h75v68h-75v78h75v29q0 140 59.5 201t202.5 61q122 0 218 -21z" />
    <glyph glyph-name="peseta" unicode="&#x20a7;" horiz-adv-x="773" 
d="M96 562v181q144 9 244 9q72 0 125 -7.5t101.5 -27.5t78.5 -58.5t39 -96.5h58v-113h-57q-9 -59 -38 -99t-76 -60t-97 -28t-116 -8q-51 0 -82 1v-255h-180v449h-59v113h59zM508 500v10q-1 61 -36.5 81.5t-119.5 20.5q-13 0 -39 -0.5t-37 -0.5v-216h77q83 0 119 22t36 83z
" />
    <glyph glyph-name="Euro" unicode="&#x20ac;" horiz-adv-x="686" 
d="M50 490h63q16 148 97.5 208.5t233.5 60.5q109 0 187 -21v-133q-1 0 -5 0.5t-5 0.5q-96 8 -159 8q-72 0 -109.5 -26.5t-48.5 -97.5h300l-20 -78h-285v-76h262l-20 -78h-238q11 -75 48.5 -102.5t111.5 -27.5q68 0 168 8v-133q-82 -20 -187 -20q-153 0 -235 62t-96 213h-63
v78h60v76h-60v78z" />
    <glyph glyph-name="litre" unicode="&#x2113;" horiz-adv-x="539" 
d="M497 43q-85 -61 -185 -61q-91 0 -136.5 47t-45.5 152l-68 -61l-37 61q10 10 48 47t57 57v317q0 98 45 143.5t145 45.5q90 0 129.5 -35t39.5 -101q0 -144 -184 -307v-177q0 -48 14.5 -65.5t48.5 -17.5q37 0 82 30zM412 654q0 61 -51 61q-36 0 -46 -25.5t-10 -87.5v-161
q107 109 107 213z" />
    <glyph glyph-name="trademark" unicode="&#x2122;" horiz-adv-x="974" 
d="M900 335h-117v189q0 36 3 70h-1q-23 -43 -30 -53l-50 -72h-60l-49 72q-12 16 -30 53h-1q3 -35 3 -70v-189h-116v414h115l82 -125q14 -19 26 -47h1q16 32 26 47l82 125h116v-414zM393 664h-117v-329h-120v329h-117v85h354v-85z" />
    <glyph glyph-name="Omega" unicode="&#x2126;" horiz-adv-x="747" 
d="M701 408q0 -200 -161 -260v-35h149v-113h-281v213q111 27 111 182v58q0 88 -38 124.5t-108 36.5t-108 -36.5t-38 -124.5v-58q0 -155 111 -182v-213h-280v113h148v35q-161 60 -161 260l1 57q0 148 84.5 221t242.5 73q159 0 243.5 -73t84.5 -221v-57z" />
    <glyph glyph-name="estimated" unicode="&#x212e;" horiz-adv-x="657" 
d="M625 282h-464v-193q72 -63 164 -63q83 0 133.5 33t93.5 94l33 -19q-47 -68 -106.5 -104.5t-153.5 -36.5q-129 0 -211 84.5t-82 205.5q0 123 81.5 206.5t215.5 83.5t215 -84.5t81 -206.5zM495 315v163q-31 26 -76 44t-90 18q-103 0 -168 -62v-163h334z" />
    <glyph glyph-name="onethird" unicode="&#x2153;" horiz-adv-x="1092" 
d="M834 745l-496 -745h-148l497 745h147zM353 302h-291v85l80 4v246l-81 -26v96l118 44h93v-360l81 -4v-85zM863 -10q-45 0 -93.5 6.5t-66.5 13.5v74q66 -6 145 -6q42 0 59 10.5t17 42.5q0 31 -13 43.5t-54 12.5h-126v81h127q40 0 53 13t13 42q0 27 -16 37t-60 10
q-9 0 -145 -7v74q56 20 160 20q95 0 142 -29t47 -101q0 -71 -55 -98q55 -25 55 -95q0 -78 -45 -111t-144 -33z" />
    <glyph glyph-name="twothirds" unicode="&#x2154;" horiz-adv-x="1169" 
d="M901 745l-497 -745h-147l497 745h147zM925 -10q-45 0 -93.5 6.5t-66.5 13.5v74q66 -6 145 -6q42 0 59 10.5t17 42.5q0 31 -13 43.5t-54 12.5h-126v81h127q40 0 53 13t13 42q0 27 -16 37t-60 10q-8 0 -145 -7v74q56 20 160 20q95 0 142 -29t47 -101q0 -71 -55 -98
q55 -25 55 -95q0 -78 -45 -111t-144 -33zM57 666v75q65 18 165 18q95 0 139 -28.5t44 -90.5q0 -47 -29 -78.5t-102 -64.5q-64 -29 -81 -46.5t-17 -53.5v-4h220v-91h-346v55q0 81 30.5 123t109.5 81q57 28 71 40.5t14 34.5q0 20 -16.5 28.5t-58.5 8.5q-66 0 -143 -7z" />
    <glyph glyph-name="oneeighth" unicode="&#x215b;" horiz-adv-x="1105" 
d="M834 745l-496 -745h-148l497 745h147zM353 302h-291v85l80 4v246l-81 -26v96l118 44h93v-360l81 -4v-85zM1054 127q0 -36 -10.5 -61.5t-27 -40t-44 -22.5t-53.5 -10.5t-63 -2.5q-36 0 -61.5 2.5t-52.5 10.5t-43.5 22.5t-27 40t-10.5 61.5q0 70 51 103q-50 32 -50 95
q0 40 14.5 67t43 41t61 19t78.5 5q93 0 143.5 -27.5t50.5 -104.5q0 -63 -49 -95q50 -32 50 -103zM929 130q0 35 -9.5 49t-36.5 14h-50q-27 0 -36.5 -14t-9.5 -49q0 -36 17 -48.5t55 -12.5q36 0 53 12.5t17 48.5zM927 321v5q0 29 -17.5 40t-53.5 11q-34 0 -51 -11.5
t-17 -39.5v-5q0 -27 9.5 -40t35.5 -13h50q25 0 34.5 13t9.5 40z" />
    <glyph glyph-name="threeeighths" unicode="&#x215c;" horiz-adv-x="1149" 
d="M872 745l-496 -745h-148l497 745h147zM1095 127q0 -36 -10.5 -61.5t-27 -40t-44 -22.5t-53.5 -10.5t-63 -2.5q-36 0 -61.5 2.5t-52.5 10.5t-43.5 22.5t-27 40t-10.5 61.5q0 70 51 103q-50 32 -50 95q0 40 14.5 67t43 41t61 19t78.5 5q93 0 143.5 -27.5t50.5 -104.5
q0 -63 -49 -95q50 -32 50 -103zM970 130q0 35 -9.5 49t-36.5 14h-50q-27 0 -36.5 -14t-9.5 -49q0 -36 17 -48.5t55 -12.5q36 0 53 12.5t17 48.5zM968 321v5q0 29 -17.5 40t-53.5 11q-34 0 -51 -11.5t-17 -39.5v-5q0 -27 9.5 -40t35.5 -13h50q25 0 34.5 13t9.5 40zM212 292
q-45 0 -93.5 6.5t-66.5 13.5v74q66 -6 145 -6q42 0 59 10.5t17 42.5v9q0 25 -13 36t-54 11h-126v81h127q40 0 53 12t13 37v6q0 27 -16 37t-60 10q-9 0 -145 -7v74q56 20 160 20q94 0 141.5 -28t47.5 -96v-6q0 -71 -55 -98q55 -25 55 -95v-9q0 -72 -45.5 -103.5t-143.5 -31.5
z" />
    <glyph glyph-name="fiveeighths" unicode="&#x215d;" horiz-adv-x="1149" 
d="M1098 132q0 -46 -14.5 -76t-44 -44t-61 -18.5t-78.5 -4.5q-46 0 -76.5 4.5t-60 18.5t-44 44t-14.5 76q0 65 50 97q-49 33 -49 102q0 72 51 98.5t146 26.5q93 0 143 -27.5t50 -103.5q0 -63 -49 -96q51 -31 51 -97zM973 134q0 32 -10.5 45.5t-36.5 13.5h-50
q-26 0 -36 -13.5t-10 -45.5q0 -39 17.5 -52t55.5 -13q36 0 53 13t17 52zM876 268h50q26 0 35.5 13t9.5 39q0 33 -17 44.5t-54 11.5q-35 0 -52 -12t-17 -44q0 -26 9.5 -39t35.5 -13zM872 745l-497 -745h-147l497 745h147zM388 661h-208l-8 -81h43q105 0 146 -30.5t41 -103.5
q0 -82 -49 -118t-141 -36q-93 0 -160 18v77q81 -9 132 -9q50 0 69 14t19 54q0 30 -17.5 40.5t-68.5 10.5h-131l23 252h310v-88z" />
    <glyph glyph-name="seveneighths" unicode="&#x215e;" horiz-adv-x="1059" 
d="M782 745l-497 -745h-147l497 745h147zM55 661v88h350v-96l-205 -351h-135l213 359h-223zM1006 132q0 -46 -14.5 -76t-44 -44t-61 -18.5t-78.5 -4.5q-46 0 -76.5 4.5t-60 18.5t-44 44t-14.5 76q0 65 50 97q-49 33 -49 102q0 72 51 98.5t146 26.5q93 0 143 -27.5t50 -103.5
q0 -63 -49 -96q51 -31 51 -97zM881 134q0 32 -10.5 45.5t-36.5 13.5h-50q-26 0 -36 -13.5t-10 -45.5q0 -39 17.5 -52t55.5 -13q36 0 53 13t17 52zM784 268h50q26 0 35.5 13t9.5 39q0 33 -17 44.5t-54 11.5q-35 0 -52 -12t-17 -44q0 -26 9.5 -39t35.5 -13z" />
    <glyph glyph-name="partialdiff" unicode="&#x2202;" horiz-adv-x="671" 
d="M619 448q0 -104 -21 -204q-29 -135 -102.5 -196.5t-200.5 -61.5q-119 0 -181 55t-62 158q0 50 7 91q36 232 293 232q54 0 103 -28q0 25 -5 48q-24 143 -189 143q-63 0 -127 -13l7 104q70 16 147 16q164 0 247.5 -91.5t83.5 -252.5zM435 313q0 77 -86 77q-54 0 -83 -31
t-37 -95q-5 -40 -5 -68q0 -42 20.5 -60.5t65.5 -18.5q53 0 81 32.5t39 104.5q5 30 5 59z" />
    <glyph glyph-name="Delta" unicode="&#x2206;" horiz-adv-x="781" 
d="M745 0h-709l208 743h290zM523 131l-106 387q-7 23 -16 69.5t-10 49.5h-2q-17 -86 -26 -119l-106 -387h266z" />
    <glyph glyph-name="product" unicode="&#x220f;" horiz-adv-x="789" 
d="M751 594h-81v-665h-177v665h-198v-665h-177v665h-81v149h714v-149z" />
    <glyph glyph-name="summation" unicode="&#x2211;" horiz-adv-x="630" 
d="M569 -71h-507v138l208 267l-208 271v138h507v-138h-307l178 -236v-72l-178 -230h307v-138z" />
    <glyph glyph-name="minus" unicode="&#x2212;" horiz-adv-x="677" 
d="M591 320h-506v132h506v-132z" />
    <glyph glyph-name="uni2215" unicode="&#x2215;" horiz-adv-x="556" 
d="M600 745l-496 -745h-147l496 745h147z" />
    <glyph glyph-name="uni2219" unicode="&#x2219;" horiz-adv-x="302" 
d="M233 286h-165v165h165v-165z" />
    <glyph glyph-name="radical" unicode="&#x221a;" horiz-adv-x="833" 
d="M787 872l-295 -942h-186l-137 440h-123v132h225l127 -423l243 793h146z" />
    <glyph glyph-name="infinity" unicode="&#x221e;" horiz-adv-x="733" 
d="M640 365q0 -242 -161 -242h-6q-67 0 -112 50q-37 -52 -104 -52h-7q-162 0 -162 243v25q0 242 163 242h7q66 0 109 -52q36 53 106 53h7q160 0 160 -243v-24zM532 365v24q0 35 -1.5 55t-6 42t-16 32t-30.5 10h-5q-27 -1 -37 -33t-19 -121q-4 -41 -15 -108q28 -41 69 -41h5
q19 0 31 11t17 33t6.5 42.5t1.5 53.5zM328 484q-29 45 -68 45h-6q-19 0 -31.5 -11.5t-17.5 -34.5t-6.5 -43t-1.5 -51v-25q0 -33 1.5 -52.5t6.5 -42t17 -33.5t31 -11h5q25 0 35 31.5t21 120.5q1 17 14 107z" />
    <glyph glyph-name="integral" unicode="&#x222b;" horiz-adv-x="544" 
d="M493 667q-75 3 -82 3q-35 0 -43.5 -11.5t-8.5 -50.5v-640q0 -87 -38.5 -129.5t-130.5 -42.5q-73 0 -139 16v98q75 -3 82 -3q34 0 43 12t9 51v640q0 86 38 128.5t130 42.5q67 0 140 -15v-99z" />
    <glyph glyph-name="approxequal" unicode="&#x2248;" horiz-adv-x="677" 
d="M590 583q0 -155 -133 -155q-58 0 -115 31l-56 32q-41 23 -57 23q-19 0 -25.5 -12t-6.5 -39v-28h-111v28q0 79 36.5 116.5t99.5 37.5q44 0 105 -34l60 -32q29 -19 61 -19q18 0 24.5 12t6.5 39v28h111v-28zM590 321q0 -154 -133 -154q-58 0 -115 31l-56 31q-41 23 -57 23
q-19 0 -25.5 -12t-6.5 -38v-29h-111v29q0 79 36.5 116t99.5 37q44 0 105 -33l60 -33q31 -19 61 -19q18 0 24.5 12t6.5 39v28h111v-28z" />
    <glyph glyph-name="notequal" unicode="&#x2260;" horiz-adv-x="677" 
d="M587 183h-233l-67 -188h-161l67 188h-102v131h143l47 140h-190v132h231l58 162h161l-58 -162h104v-132h-146l-46 -140h192v-131z" />
    <glyph glyph-name="lessequal" unicode="&#x2264;" horiz-adv-x="677" 
d="M599 0h-519v107h519v-107zM557 169h-190l-280 241l280 241h190l-277 -241z" />
    <glyph glyph-name="greaterequal" unicode="&#x2265;" horiz-adv-x="677" 
d="M595 0h-519v107h519v-107zM588 410l-279 -241h-191l277 241l-277 241h191z" />
    <glyph glyph-name="lozenge" unicode="&#x25ca;" horiz-adv-x="696" 
d="M621 364l-275 -322l-271 321l273 326zM482 364l-134 157l-134 -158l132 -154z" />
    <glyph glyph-name="percent.oldstyle" unicode="&#xfe6a;" horiz-adv-x="968" 
d="M917 170q0 -181 -163 -181q-164 0 -164 181v8q0 181 164 181q163 0 163 -181v-8zM800 170v9q0 54 -11 74t-35 20q-25 0 -36 -20t-11 -74v-9q0 -54 11 -74t36 -20q24 0 35 20t11 74zM755 604l-409 -604h-130l409 604h130zM378 426q0 -181 -164 -181t-164 181v7
q0 182 164 182t164 -182v-7zM261 426v8q0 54 -11 74t-36 20q-24 0 -35 -20t-11 -74v-8q0 -54 11 -74t35 -20q25 0 36 20t11 74z" />
    <glyph glyph-name="dollar.oldstyle" horiz-adv-x="599" 
d="M65 7v119q120 -8 208 -8q91 0 91 56q0 24 -15 38t-64 35l-81 34q-81 35 -118.5 76.5t-37.5 119.5q0 152 182 178v101h143v-97q89 -7 158 -22v-117q-145 10 -210 10q-46 0 -68.5 -10t-22.5 -36q0 -22 14 -36.5t56 -31.5l79 -33q92 -38 130 -80t38 -119q0 -162 -174 -192
v-109h-143v104q-106 5 -165 20z" />
    <glyph glyph-name="dollar.superior" horiz-adv-x="438" 
d="M52 346v84q62 -6 147 -6q68 0 68 41q0 16 -11 25.5t-43 21.5l-61 24q-55 22 -83.5 52.5t-28.5 82.5q0 103 123 123v81h112v-78q59 -4 107 -14v-84q-93 8 -148 8q-69 0 -69 -35q0 -15 11 -24.5t41 -19.5l59 -21q62 -22 90 -52t28 -83q0 -56 -31 -90.5t-88 -44.5v-83h-112
v79q-57 3 -111 13z" />
    <glyph glyph-name="zero.oldstyle" horiz-adv-x="706" 
d="M657 282q0 -299 -304 -299q-151 0 -227.5 76t-76.5 223v35q0 147 76.5 222.5t227.5 75.5q304 0 304 -298v-35zM470 282v35q0 86 -30 122t-87 36t-86.5 -36t-29.5 -122v-35q0 -86 29.5 -122.5t86.5 -36.5t87 36.5t30 122.5z" />
    <glyph glyph-name="one.oldstyle" horiz-adv-x="588" 
d="M544 0h-500v129l159 7v302l-160 -50v145l212 72h134v-469l155 -7v-129z" />
    <glyph glyph-name="two.oldstyle" horiz-adv-x="650" 
d="M59 471v113q108 31 251 31q159 0 225.5 -43.5t66.5 -134.5q0 -79 -46.5 -131t-172.5 -122l-83 -46h292v-138h-541v138l176 101q113 65 149.5 102t36.5 78q0 35 -30 49.5t-104 14.5q-76 0 -220 -12z" />
    <glyph glyph-name="three.oldstyle" horiz-adv-x="651" 
d="M589 61q0 -119 -72 -171t-224 -52q-67 0 -139 11t-108 23v114q119 -14 228 -14q71 0 100 19.5t29 77.5v17q0 45 -21.5 66t-88.5 21h-202v123h203q65 0 87 22t22 68v10q0 51 -27 68.5t-103 17.5q-103 0 -225 -12v113q31 11 104.5 21.5t140.5 10.5q148 0 222 -47t74 -159
v-11q0 -117 -88 -162q88 -43 88 -158v-17z" />
    <glyph glyph-name="four.oldstyle" horiz-adv-x="712" 
d="M666 27h-99v-169h-187v169h-341v129l369 446h159v-447h99v-128zM389 155v250l-201 -250h201z" />
    <glyph glyph-name="five.oldstyle" horiz-adv-x="641" 
d="M593 78q0 -125 -77 -181t-223 -56q-142 0 -246 30v116q114 -14 208 -14q84 0 116.5 22.5t32.5 81.5v20q0 55 -30 75t-116 20h-204l35 410h480v-134h-330l-13 -149h70q166 0 231.5 -51.5t65.5 -169.5v-20z" />
    <glyph glyph-name="six.oldstyle" horiz-adv-x="688" 
d="M639 230q0 -69 -23.5 -118.5t-65.5 -76.5t-92 -39.5t-110 -12.5q-155 0 -227 72.5t-72 235.5v166q0 76 13 128t46 93t94 61t152 20q136 0 248 -28v-117q-140 12 -226 12q-48 0 -77 -8t-43.5 -28t-18.5 -43.5t-4 -63.5v-25q60 15 132 15q64 0 109.5 -8.5t85 -31
t59.5 -65.5t20 -107v-31zM455 229v29q0 60 -25 80.5t-84 20.5q-60 0 -113 -12v-86q0 -86 28 -118.5t88 -32.5q49 0 77.5 29.5t28.5 89.5z" />
    <glyph glyph-name="seven.oldstyle" horiz-adv-x="636" 
d="M599 454l-327 -595h-198l341 609h-372v134h556v-148z" />
    <glyph glyph-name="eight.oldstyle" horiz-adv-x="715" 
d="M663 213q0 -60 -16.5 -103t-42 -67.5t-67.5 -38t-81.5 -17.5t-95.5 -4h-5q-56 0 -95.5 4t-81.5 17.5t-67.5 38t-42 67.5t-16.5 103q0 63 19.5 103t61.5 67q-79 52 -79 158q0 54 15.5 93.5t41 63t66 37.5t82 19t96.5 5h5q55 0 96.5 -5t81.5 -19t65.5 -37.5t41 -63
t15.5 -93.5q0 -106 -79 -158q42 -28 62 -68t20 -102zM479 222q-1 57 -18 80.5t-62 23.5h-84q-46 0 -63 -23.5t-17 -80.5q0 -70 29 -93.5t91 -23.5h5q61 0 90 23.5t29 93.5zM477 535q0 58 -29 79.5t-88 21.5h-5q-60 0 -89 -21t-29 -80q0 -47 17 -70t61 -23h84q44 0 61 23
t17 70z" />
    <glyph glyph-name="nine.oldstyle" horiz-adv-x="688" 
d="M633 144q0 -75 -13 -128t-46 -95t-94.5 -62.5t-152.5 -20.5q-124 0 -248 28v117q139 -12 230 -12q89 0 114 32t25 111v26q-58 -15 -132 -15q-63 0 -109 8.5t-85 31t-59 65.5t-20 107v31q0 68 23.5 117.5t65.5 77t92 40t110 12.5q155 0 227 -71t72 -232v-168zM448 250v87
q0 85 -28 118t-87 33q-50 0 -78.5 -29.5t-28.5 -90.5v-29q0 -60 25 -80.5t84 -20.5q61 0 113 12z" />
    <glyph glyph-name="comma.superior" horiz-adv-x="257" 
d="M208 438l-72 -163h-94l52 163h114z" />
    <glyph glyph-name="period.superior" horiz-adv-x="218" 
d="M168 338h-118v100h118v-100z" />
    <glyph glyph-name="a.superior" horiz-adv-x="425" 
d="M372 307h-110v25q-51 -34 -115 -34q-106 0 -106 101v12q0 28 9.5 47.5t23.5 30t40 16.5t47.5 7t58.5 1h31v20q0 30 -11.5 38.5t-51.5 8.5q-34 0 -119 -5v66q58 22 146 22q85 0 121 -30t36 -103v-223zM256 385v73h-34q-38 0 -52 -7.5t-14 -35.5v-11q0 -35 38 -35
q27 0 62 16z" />
    <glyph glyph-name="b.superior" horiz-adv-x="443" 
d="M53 779h121v-127q25 11 68 11q84 0 124 -39.5t40 -124.5v-31q0 -92 -46.5 -131t-140.5 -39q-76 0 -166 10v471zM285 468v31q0 44 -12 59.5t-46 15.5q-33 0 -54 -9v-176q30 -3 47 -3q37 0 51 17t14 65z" />
    <glyph glyph-name="cent.superior" horiz-adv-x="405" 
d="M362 340q-30 -9 -83 -12v-79h-109v86q-129 32 -129 206v39q0 176 129 206v81h109v-75q44 -1 83 -11v-95q-60 4 -99 4q-50 0 -69 -23.5t-19 -86.5v-39q0 -63 18 -86.5t70 -23.5q61 0 99 5v-96z" />
    <glyph glyph-name="d.superior" horiz-adv-x="444" 
d="M391 307h-111v21q-47 -30 -103 -30q-67 0 -103.5 41.5t-36.5 124.5v33q0 89 42.5 127.5t125.5 38.5q33 0 65 -5v121h121v-472zM272 398v173q-24 4 -51 4q-35 0 -49 -15t-14 -63v-33q0 -43 13 -60.5t45 -17.5q24 0 56 12z" />
    <glyph glyph-name="e.superior" horiz-adv-x="431" 
d="M394 450h-237v-4q0 -17 2 -26.5t9.5 -20t24.5 -15t44 -4.5q67 0 139 8v-75q-72 -15 -152 -15q-100 0 -143.5 42.5t-43.5 123.5v31q0 168 180 168q96 0 136.5 -49.5t40.5 -124.5v-39zM277 510v5q0 33 -12.5 51.5t-47.5 18.5q-60 0 -60 -70v-5h120z" />
    <glyph glyph-name="l.superior" horiz-adv-x="227" 
d="M174 307h-121v472h121v-472z" />
    <glyph glyph-name="m.superior" horiz-adv-x="649" 
d="M166 625q46 38 111 38q62 0 87 -39q55 39 116 39q68 0 92 -34t24 -97v-225h-122v222q0 19 -1.5 27t-9 14.5t-24.5 6.5q-24 0 -56 -15q2 -12 2 -33v-222h-121v222q0 18 -1.5 26.5t-9 15t-22.5 6.5q-23 0 -57 -16v-254h-121v347h113v-29z" />
    <glyph glyph-name="o.superior" horiz-adv-x="432" 
d="M395 465q0 -167 -179 -167t-179 167v32q0 166 179 166t179 -166v-32zM275 465v32q0 43 -14 60.5t-45 17.5q-32 0 -45.5 -17.5t-13.5 -60.5v-32q0 -44 13.5 -61.5t45.5 -17.5q31 0 45 18t14 61z" />
    <glyph glyph-name="r.superior" horiz-adv-x="313" 
d="M174 307h-121v347h111v-29q43 38 118 38v-98q-57 0 -108 -14v-244z" />
    <glyph glyph-name="s.superior" horiz-adv-x="387" 
d="M346 408q0 -56 -40 -83t-125 -27q-71 0 -133 14v69q112 -8 126 -8q53 0 53 30q0 14 -9.5 21t-42.5 18l-28 9q-54 17 -80 42.5t-26 68.5q0 57 39 79t114 22q90 0 138 -14v-64q-57 4 -123 4q-27 0 -38 -5t-11 -19q0 -12 8 -18.5t35 -15.5l34 -12q61 -22 85 -45t24 -66z" />
    <glyph glyph-name="t.superior" horiz-adv-x="331" 
d="M296 308q-45 -10 -84 -10q-61 0 -87.5 26t-26.5 87v164l-63 6v73h63v85h120v-85h78v-79h-77v-164q0 -23 4.5 -29t23.5 -6q31 0 49 2v-70z" />
    <glyph glyph-name="hyphen.superior" horiz-adv-x="247" 
d="M199 495h-152v88h152v-88z" />
    <glyph glyph-name="cent.oldstyle" horiz-adv-x="573" 
d="M517 598v-123q-87 6 -150 6q-70 0 -99.5 -31t-29.5 -115v-69q0 -84 29.5 -114.5t99.5 -30.5q77 0 149 5v-122q-36 -11 -125 -17v-100h-140v106q-100 21 -147 87.5t-47 185.5v69q0 233 194 272v102h141v-95q86 -6 125 -16z" />
    <glyph glyph-name="hyphen.inferior" horiz-adv-x="247" 
d="M199 4h-152v88h152v-88z" />
    <glyph glyph-name="cent.inferior" horiz-adv-x="405" 
d="M362 -199q-30 -9 -83 -12v-79h-109v86q-129 32 -129 206v39q0 176 129 206v81h109v-75q44 -1 83 -11v-95q-60 4 -99 4q-50 0 -69 -23.5t-19 -86.5v-39q0 -63 18 -86.5t70 -23.5q61 0 99 5v-96z" />
    <glyph glyph-name="dollar.inferior" horiz-adv-x="438" 
d="M52 -198v84q62 -6 147 -6q68 0 68 41q0 16 -11 25.5t-43 21.5l-61 24q-55 22 -83.5 52.5t-28.5 82.5q0 103 123 123v81h112v-78q59 -4 107 -14v-84q-93 8 -148 8q-69 0 -69 -35q0 -15 11 -24.5t41 -19.5l59 -21q62 -22 90 -52t28 -83q0 -56 -31 -90.5t-88 -44.5v-83h-112
v79q-57 3 -111 13z" />
    <glyph glyph-name="period.inferior" horiz-adv-x="218" 
d="M168 -153h-118v100h118v-100z" />
    <glyph glyph-name="comma.inferior" horiz-adv-x="257" 
d="M208 -53l-72 -163h-94l52 163h114z" />
    <glyph glyph-name="commaaccent" horiz-adv-x="491" 
d="M355 -63l-95 -140h-152l67 140h180z" />
    <glyph glyph-name="Dotaccent" horiz-adv-x="426" 
d="M303 811h-180v127h180v-127z" />
    <glyph glyph-name="Breve" horiz-adv-x="513" 
d="M464 949q-9 -80 -67 -119.5t-141 -39.5q-82 0 -140 39.5t-67 119.5h101q10 -77 106 -77t108 77h100z" />
    <glyph glyph-name="Ogonek" horiz-adv-x="458" 
d="M380 -200q-56 -17 -135 -17q-151 0 -151 99q0 39 36 70.5t118 62.5h134q-61 -28 -93 -49t-39 -31.5t-7 -22.5q0 -36 53 -36q19 0 84 5v-81z" />
    <glyph glyph-name="Cedilla" horiz-adv-x="454" 
d="M347 -63l-131 -140h-159l105 140h185z" />
    <glyph glyph-name="Ring" horiz-adv-x="445" 
d="M365 893q0 -58 -39 -89.5t-102 -31.5q-64 0 -104 32t-40 89q0 58 40 90.5t104 32.5q63 0 102 -32.5t39 -90.5zM279 894q0 48 -55 48q-56 0 -56 -48t56 -48q25 0 40 12t15 36z" />
    <glyph glyph-name="Tilde" horiz-adv-x="516" 
d="M487 926q0 -72 -32 -105.5t-87 -33.5q-46 0 -105 31l-47 26q-34 20 -54 20q-31 0 -31 -47v-25h-98v25q0 71 33 105t89 34q42 0 99 -29l48 -26q38 -22 57 -22q17 0 23.5 11t6.5 36v24h98v-24z" />
    <glyph glyph-name="Circumflex" horiz-adv-x="545" 
d="M511 792h-152l-87 82l-86 -82h-153l135 146h208z" />
    <glyph glyph-name="Acute" horiz-adv-x="485" 
d="M433 938l-167 -146h-163l132 146h198z" />
    <glyph glyph-name="Caron" horiz-adv-x="545" 
d="M33 938h153l86 -83l87 83h152l-135 -146h-208z" />
    <glyph glyph-name="Dieresis" horiz-adv-x="508" 
d="M451 806h-139v127h139v-127zM197 933v-127h-140v127h140z" />
    <glyph glyph-name="Grave" horiz-adv-x="485" 
d="M374 792h-162l-167 146h198z" />
    <glyph glyph-name="Hungarumlaut" horiz-adv-x="621" 
d="M679 935l-166 -146h-150l131 146h185zM213 935h184l-166 -146h-151z" />
    <glyph glyph-name="Macron" horiz-adv-x="503" 
d="M456 813h-409v100h409v-100z" />
    <glyph glyph-name="commaaccent.cap" horiz-adv-x="491" 
d="M355 -63l-95 -140h-152l67 140h180z" />
    <glyph glyph-name="h.superior" horiz-adv-x="460" 
d="M53 784h121v-140q50 24 108 24q73 0 99 -35.5t26 -104.5v-216h-122v216q0 30 -9.5 41.5t-33.5 11.5q-30 0 -68 -15v-254h-121v472z" />
    <glyph glyph-name="zero.slash" horiz-adv-x="706" 
d="M657 326q0 -343 -304 -343q-105 0 -176 43l-19 -26h-158l90 121q-41 79 -41 205v90q0 343 304 343q105 0 176 -43l20 27h157l-90 -123q41 -80 41 -204v-90zM469 326v95l-196 -265q26 -33 80 -33q58 0 87 44t29 159zM237 320l195 265q-26 34 -79 34q-58 0 -87 -44
t-29 -159v-96z" />
    <glyph glyph-name="perthousand.oldstyle" horiz-adv-x="1345" 
d="M1295 170q0 -181 -164 -181t-164 181v8q0 181 164 181t164 -181v-8zM1178 170v9q0 54 -11.5 74t-35.5 20q-25 0 -36 -20t-11 -74v-9q0 -54 11 -74t36 -20q24 0 35.5 20t11.5 74zM917 170q0 -181 -163 -181q-164 0 -164 181v8q0 181 164 181q163 0 163 -181v-8zM800 170v9
q0 54 -11 74t-35 20q-25 0 -36 -20t-11 -74v-9q0 -54 11 -74t36 -20q24 0 35 20t11 74zM755 604l-409 -604h-130l409 604h130zM378 426q0 -181 -164 -181t-164 181v7q0 182 164 182t164 -182v-7zM261 426v8q0 54 -11 74t-36 20q-24 0 -35 -20t-11 -74v-8q0 -54 11 -74
t35 -20q25 0 36 20t11 74z" />
    <glyph glyph-name="zero.taboldstyle" horiz-adv-x="718" 
d="M663 282q0 -147 -76.5 -223t-227.5 -76t-227.5 76t-76.5 223v35q0 298 304 298t304 -298v-35zM475 282v35q0 86 -29.5 122t-86.5 36t-86.5 -36t-29.5 -122v-35q0 -86 29.5 -122.5t86.5 -36.5t86.5 36.5t29.5 122.5z" />
    <glyph glyph-name="one.taboldstyle" horiz-adv-x="718" 
d="M617 0h-515v131l166 7v302l-167 -49v142l218 72h136v-467l162 -7v-131z" />
    <glyph glyph-name="two.taboldstyle" horiz-adv-x="718" 
d="M92 471v113q106 31 251 31q159 0 225.5 -43.5t66.5 -134.5q0 -79 -47 -132t-172 -121l-84 -46h293v-138h-542v138l177 101q111 64 147.5 101t37.5 79q0 35 -29.5 49.5t-104.5 14.5q-77 0 -219 -12z" />
    <glyph glyph-name="three.taboldstyle" horiz-adv-x="718" 
d="M631 61q0 -119 -72 -171t-225 -52q-67 0 -138 11t-108 23v114q117 -14 228 -14q71 0 100 19.5t29 77.5v17q0 45 -22 66t-88 21h-202v123h203q65 0 87 22t22 68v10q0 51 -27 68.5t-103 17.5q-102 0 -226 -12v113q32 11 105.5 21.5t139.5 10.5q149 0 223 -47t74 -159v-11
q0 -117 -88 -162q88 -43 88 -158v-17z" />
    <glyph glyph-name="four.taboldstyle" horiz-adv-x="718" 
d="M672 27h-99v-169h-187v169h-341v129l369 445h159v-446h99v-128zM395 155v249l-201 -249h201z" />
    <glyph glyph-name="five.taboldstyle" horiz-adv-x="718" 
d="M633 78q0 -125 -77 -181t-223 -56q-142 0 -246 30v116q114 -14 208 -14q84 0 116.5 22.5t32.5 81.5v20q0 55 -30 75t-116 20h-204l35 410h480v-134h-330l-13 -149h70q166 0 231.5 -51.5t65.5 -169.5v-20z" />
    <glyph glyph-name="six.taboldstyle" horiz-adv-x="718" 
d="M654 230q0 -69 -23.5 -118.5t-65.5 -76.5t-92 -39.5t-110 -12.5q-155 0 -227 72.5t-72 235.5v166q0 76 13 128t46 93t94 61t152 20q136 0 248 -28v-117q-142 12 -226 12q-48 0 -77 -8t-43.5 -28t-18.5 -43.5t-4 -63.5v-25q60 15 132 15q64 0 109.5 -8.5t85 -31
t59.5 -65.5t20 -107v-31zM470 229v29q0 60 -25 80.5t-84 20.5q-61 0 -113 -12v-86q0 -86 28 -118.5t87 -32.5q49 0 78 29.5t29 89.5z" />
    <glyph glyph-name="seven.taboldstyle" horiz-adv-x="718" 
d="M642 454l-328 -595h-198l342 609h-372v134h556v-148z" />
    <glyph glyph-name="eight.taboldstyle" horiz-adv-x="718" 
d="M664 213q0 -60 -16.5 -103t-42 -67.5t-67.5 -38t-81.5 -17.5t-95.5 -4h-5q-56 0 -95.5 4t-81.5 17.5t-67.5 38t-42 67.5t-16.5 103v7q0 109 82 163q-80 51 -80 158v9q0 63 22.5 106t66 64.5t93.5 30t119 8.5h5q69 0 119 -8.5t93.5 -30t66 -64.5t22.5 -106v-9
q0 -107 -80 -158q82 -54 82 -163v-7zM481 215v7q-1 57 -18.5 80.5t-62.5 23.5h-84q-45 0 -62.5 -23.5t-17.5 -80.5v-7q0 -65 29.5 -87.5t90.5 -22.5h5q61 0 90.5 22.5t29.5 87.5zM479 535v9q0 52 -29.5 72t-88.5 20h-5q-59 0 -88.5 -20t-29.5 -72v-9q0 -47 17 -70t61 -23h84
q44 0 61.5 23t17.5 70z" />
    <glyph glyph-name="nine.taboldstyle" horiz-adv-x="718" 
d="M654 144q0 -75 -13 -128t-46 -95t-94.5 -62.5t-152.5 -20.5q-124 0 -248 28v117q139 -12 230 -12q88 0 113.5 32t25.5 111v26q-60 -15 -132 -15q-63 0 -109 8.5t-85 31t-59 65.5t-20 107v31q0 68 23.5 117.5t65.5 77t92 40t110 12.5q155 0 227 -71t72 -232v-168zM469 250
v87q0 86 -28 118.5t-88 32.5q-49 0 -77.5 -29.5t-28.5 -90.5v-29q0 -60 25 -80.5t84 -20.5q61 0 113 12z" />
    <glyph glyph-name="colonmonetary.taboldstyle" horiz-adv-x="621" 
d="M540 598v-125q-101 7 -149 7q-69 0 -98.5 -30.5t-29.5 -114.5v-68q0 -84 29 -114.5t99 -30.5q79 0 149 5v-123q-21 -7 -72 -12v-98h-86v91h-14q-32 0 -59 3v-94h-85v117q-143 53 -143 256v68q0 201 143 256v110h85v-88q34 4 59 4h14v84h86v-91q31 -3 72 -12z" />
    <glyph glyph-name="Euro.taboldstyle" horiz-adv-x="649" 
d="M434 486q-64 0 -92.5 -19t-34.5 -74h238l-15 -66h-228v-59h214l-15 -66h-194q5 -50 33.5 -69.5t88.5 -19.5q53 0 149 6v-118q-72 -18 -172 -18q-134 0 -202 49.5t-80 169.5h-52v66h49v59h-49v66h51q11 124 79 174t204 50q89 0 172 -17v-121q-81 7 -144 7z" />
    <glyph glyph-name="florin.taboldstyle" horiz-adv-x="624" 
d="M548 603l-10 -94q-46 2 -63 2q-25 0 -36 -8.5t-16 -37.5l-13 -93h115l-14 -110h-116l-29 -229q-10 -82 -52.5 -115.5t-116.5 -33.5q-61 0 -122 13l13 95q52 -2 64 -2q25 0 35 10.5t15 38.5l28 223h-102l14 110h103l14 98q11 82 54.5 114t116.5 32q59 0 118 -13z" />
    <glyph glyph-name="numbersign.taboldstyle" horiz-adv-x="699" 
d="M623 138h-106l-16 -138h-135l16 138h-106l-16 -138h-135l16 138h-66v98h77l14 119h-91v99h103l18 148h135l-18 -148h105l18 148h135l-18 -148h70v-99h-81l-14 -119h95v-98zM407 355h-106l-14 -119h106z" />
    <glyph glyph-name="sterling.taboldstyle" horiz-adv-x="628" 
d="M550 599v-118q-77 8 -145 8q-60 0 -78 -16.5t-18 -68.5v-40h162v-112h-162v-66q0 -36 -16 -61h257v-125h-450v101q40 36 40 85v66h-62v112h62v40q0 114 53.5 163t172.5 49q91 0 184 -17z" />
    <glyph glyph-name="yen.taboldstyle" horiz-adv-x="711" 
d="M441 0h-171v146h-209v90h197l-41 77h-156v90h109l-106 199h185l71 -152q6 -14 35 -83h1q15 40 35 83l71 152h187l-108 -199h111v-90h-158l-42 -77h200v-90h-211v-146z" />
    <glyph glyph-name="dollar.taboldstyle" horiz-adv-x="642" 
d="M96 5v115q147 -8 200 -8q90 0 90 52q0 22 -15.5 35.5t-65.5 32.5l-71 27q-81 31 -118 70t-37 113q0 146 175 169v90h139v-87q86 -6 150 -20v-110q-168 8 -200 8q-46 0 -67.5 -9t-21.5 -34q0 -20 14.5 -33.5t58.5 -30.5l74 -29q89 -33 125.5 -72.5t36.5 -116.5
q0 -149 -170 -176v-97h-139v93q-102 5 -158 18z" />
    <glyph glyph-name="cent.taboldstyle" horiz-adv-x="621" 
d="M540 598v-122q-100 5 -149 5q-70 0 -99.5 -31t-29.5 -115v-69q0 -84 29.5 -114.5t99.5 -30.5q76 0 149 5v-122q-36 -11 -125 -17v-100h-140v106q-100 21 -147 88t-47 185v69q0 233 194 272v102h141v-95q87 -6 124 -16z" />
    <glyph glyph-name="zero.denominator" horiz-adv-x="491" 
d="M444 206q0 -216 -197 -216t-197 216v35q0 216 197 216t197 -216v-35zM314 205v36q0 70 -17 95t-50 25q-34 0 -50.5 -25t-16.5 -95v-36q0 -70 16.5 -95t50.5 -25q33 0 50 25.5t17 94.5z" />
    <glyph glyph-name="one.denominator" horiz-adv-x="407" 
d="M353 0h-291v85l80 4v246l-81 -26v96l118 44h93v-360l81 -4v-85z" />
    <glyph glyph-name="two.denominator" horiz-adv-x="454" 
d="M57 364v75q65 18 165 18q95 0 139 -28.5t44 -90.5q0 -47 -29 -78.5t-102 -64.5q-64 -29 -81 -46.5t-17 -53.5v-4h220v-91h-346v55q0 81 30.5 123t109.5 81q57 28 71 40.5t14 34.5q0 20 -16.5 28.5t-58.5 8.5q-66 0 -143 -7z" />
    <glyph glyph-name="three.denominator" horiz-adv-x="450" 
d="M212 -10q-45 0 -93.5 6.5t-66.5 13.5v74q66 -6 145 -6q42 0 59 10.5t17 42.5v9q0 25 -13 36t-54 11h-126v81h127q40 0 53 12t13 37v6q0 27 -16 37t-60 10q-9 0 -145 -7v74q56 20 160 20q94 0 141.5 -28t47.5 -96v-6q0 -71 -55 -98q55 -25 55 -95v-9q0 -72 -45.5 -103.5
t-143.5 -31.5z" />
    <glyph glyph-name="four.denominator" horiz-adv-x="474" 
d="M374 0h-128v98h-213v82l236 267h105v-265h60v-84h-60v-98zM253 182v136l-119 -136h119z" />
    <glyph glyph-name="five.denominator" horiz-adv-x="451" 
d="M388 359h-208l-8 -81h43q105 0 146 -30.5t41 -103.5v-8q0 -146 -190 -146q-93 0 -160 18v77q81 -9 132 -9q50 0 69 12.5t19 45.5v10q0 30 -17.5 40.5t-68.5 10.5h-131l23 252h310v-88z" />
    <glyph glyph-name="six.denominator" horiz-adv-x="477" 
d="M402 439v-77q-78 6 -145 6q-54 0 -69 -17t-15 -61v-13q31 9 78 9q85 0 130 -27.5t45 -103.5v-15q0 -79 -51.5 -114.5t-136.5 -35.5q-102 0 -147 45.5t-45 144.5v87q0 96 41.5 143t153.5 47q83 0 161 -18zM299 140v14q0 34 -14.5 46t-47.5 12t-64 -7v-46q0 -50 16 -68.5
t50 -18.5q60 0 60 68z" />
    <glyph glyph-name="seven.denominator" horiz-adv-x="448" 
d="M55 359v88h350v-96l-205 -351h-135l213 359h-223z" />
    <glyph glyph-name="eight.denominator" horiz-adv-x="492" 
d="M439 127q0 -36 -10.5 -61.5t-27 -40t-44 -22.5t-53.5 -10.5t-63 -2.5q-36 0 -61.5 2.5t-52.5 10.5t-43.5 22.5t-27 40t-10.5 61.5v6q0 64 51 97q-50 32 -50 95v6q0 73 51 99.5t146 26.5q93 0 143.5 -26.5t50.5 -99.5v-6q0 -63 -49 -95q50 -32 50 -97v-6zM314 130v4
q0 32 -10 45.5t-36 13.5h-50q-26 0 -36 -13.5t-10 -45.5v-4q0 -36 17 -48.5t55 -12.5q36 0 53 12.5t17 48.5zM312 321v5q0 29 -17.5 40t-53.5 11q-34 0 -51 -11.5t-17 -39.5v-5q0 -27 9.5 -40t35.5 -13h50q25 0 34.5 13t9.5 40z" />
    <glyph glyph-name="nine.denominator" horiz-adv-x="477" 
d="M70 7v77q86 -7 148 -7q51 0 66.5 17.5t15.5 61.5v13q-34 -8 -78 -8q-86 0 -131 27t-45 103v16q0 78 52 114t137 36q102 0 146.5 -46t44.5 -145v-88q0 -95 -41 -141.5t-153 -46.5q-96 0 -162 17zM300 241v47q0 50 -16 68t-51 18q-60 0 -60 -67v-15q0 -33 14.5 -45
t46.5 -12q33 0 66 6z" />
    <glyph glyph-name="comma.denominator" horiz-adv-x="257" 
d="M208 105l-72 -163h-94l52 163h114z" />
    <glyph glyph-name="period.denominator" horiz-adv-x="218" 
d="M168 5h-118v100h118v-100z" />
    <glyph glyph-name="cent.denominator" horiz-adv-x="405" 
d="M362 7q-30 -9 -83 -12v-79h-109v86q-129 32 -129 206v39q0 176 129 206v81h109v-75q44 -1 83 -11v-95q-60 4 -99 4q-50 0 -69 -23.5t-19 -86.5v-39q0 -63 18 -86.5t70 -23.5q61 0 99 5v-96z" />
    <glyph glyph-name="dollar.denominator" horiz-adv-x="438" 
d="M52 8v84q62 -6 147 -6q68 0 68 41q0 16 -11 25.5t-43 21.5l-61 24q-55 22 -83.5 52.5t-28.5 82.5q0 103 123 123v81h112v-78q59 -4 107 -14v-84q-93 8 -148 8q-69 0 -69 -35q0 -15 11 -24.5t41 -19.5l59 -21q62 -22 90 -52t28 -83q0 -56 -31 -90.5t-88 -44.5v-83h-112v79
q-57 3 -111 13z" />
    <glyph glyph-name="hyphen.denominator" horiz-adv-x="247" 
d="M199 162h-152v88h152v-88z" />
    <glyph glyph-name="parenleft.denominator" horiz-adv-x="287" 
d="M246 -74h-112q-81 110 -81 262v5q0 152 81 264h112q-75 -117 -75 -264v-5q0 -147 75 -262z" />
    <glyph glyph-name="parenright.denominator" horiz-adv-x="287" 
d="M234 188q0 -151 -82 -262h-111q75 115 75 262v5q0 147 -75 264h111q82 -114 82 -264v-5z" />
    <glyph glyph-name="zero.numerator" horiz-adv-x="491" 
d="M444 508q0 -216 -197 -216t-197 216v35q0 216 197 216t197 -216v-35zM314 507v36q0 70 -17 95t-50 25q-34 0 -50.5 -25t-16.5 -95v-36q0 -70 16.5 -95t50.5 -25q33 0 50 25.5t17 94.5z" />
    <glyph glyph-name="one.numerator" horiz-adv-x="407" 
d="M353 302h-291v85l80 4v246l-81 -26v96l118 44h93v-360l81 -4v-85z" />
    <glyph glyph-name="two.numerator" horiz-adv-x="454" 
d="M57 666v75q65 18 165 18q95 0 139 -28.5t44 -90.5q0 -47 -29 -78.5t-102 -64.5q-64 -29 -81 -46.5t-17 -53.5v-4h220v-91h-346v55q0 81 30.5 123t109.5 81q57 28 71 40.5t14 34.5q0 20 -16.5 28.5t-58.5 8.5q-66 0 -143 -7z" />
    <glyph glyph-name="three.numerator" horiz-adv-x="450" 
d="M212 292q-45 0 -93.5 6.5t-66.5 13.5v74q66 -6 145 -6q42 0 59 10.5t17 42.5q0 31 -13 43.5t-54 12.5h-126v81h127q40 0 53 13t13 42q0 27 -16 37t-60 10q-9 0 -145 -7v74q56 20 160 20q95 0 142 -29t47 -101q0 -71 -55 -98q55 -25 55 -95q0 -78 -45 -111t-144 -33z" />
    <glyph glyph-name="four.numerator" horiz-adv-x="474" 
d="M374 302h-128v98h-213v82l236 267h105v-265h60v-84h-60v-98zM253 484v136l-119 -136h119z" />
    <glyph glyph-name="five.numerator" horiz-adv-x="451" 
d="M388 661h-208l-8 -81h43q105 0 146 -30.5t41 -103.5q0 -82 -49 -118t-141 -36q-93 0 -160 18v77q81 -9 132 -9q50 0 69 14t19 54q0 30 -17.5 40.5t-68.5 10.5h-131l23 252h310v-88z" />
    <glyph glyph-name="six.numerator" horiz-adv-x="477" 
d="M402 741v-77q-78 6 -145 6q-54 0 -69 -17t-15 -61v-13q32 9 78 9q85 0 130 -27.5t45 -103.5v-15q0 -79 -51.5 -114.5t-136.5 -35.5q-102 0 -147 45.5t-45 144.5v87q0 96 41.5 143t153.5 47q83 0 161 -18zM299 442v14q0 34 -14.5 46t-47.5 12t-64 -7v-46q0 -50 16 -68.5
t50 -18.5q60 0 60 68z" />
    <glyph glyph-name="seven.numerator" horiz-adv-x="448" 
d="M55 661v88h350v-96l-205 -351h-135l213 359h-223z" />
    <glyph glyph-name="eight.numerator" horiz-adv-x="492" 
d="M439 435q0 -46 -14.5 -76t-44 -44t-61 -18.5t-78.5 -4.5q-46 0 -76.5 4.5t-60 18.5t-44 44t-14.5 76q0 65 50 97q-49 33 -49 102q0 72 51 98.5t146 26.5q93 0 143 -27.5t50 -103.5q0 -63 -49 -96q51 -31 51 -97zM314 437q0 32 -10.5 45.5t-36.5 13.5h-50q-26 0 -36 -13.5
t-10 -45.5q0 -39 17.5 -52t55.5 -13q36 0 53 13t17 52zM217 571h50q25 0 35 13t10 39q0 33 -17 44.5t-54 11.5q-35 0 -52 -12t-17 -44q0 -26 10 -39t35 -13z" />
    <glyph glyph-name="nine.numerator" horiz-adv-x="477" 
d="M70 309v77q86 -7 148 -7q51 0 66.5 17.5t15.5 61.5v13q-34 -8 -78 -8q-86 0 -131 27t-45 103v16q0 78 52 114t137 36q102 0 146.5 -46t44.5 -145v-88q0 -95 -41 -141.5t-153 -46.5q-96 0 -162 17zM300 543v47q0 50 -16 68t-51 18q-60 0 -60 -67v-15q0 -33 14.5 -45
t46.5 -12q33 0 66 6z" />
    <glyph glyph-name="comma.numerator" horiz-adv-x="257" 
d="M208 407l-72 -163h-94l52 163h114z" />
    <glyph glyph-name="period.numerator" horiz-adv-x="218" 
d="M168 307h-118v100h118v-100z" />
    <glyph glyph-name="cent.numerator" horiz-adv-x="405" 
d="M362 309q-30 -9 -83 -12v-79h-109v86q-129 32 -129 206v39q0 176 129 206v81h109v-75q44 -1 83 -11v-95q-60 4 -99 4q-50 0 -69 -23.5t-19 -86.5v-39q0 -63 18 -86.5t70 -23.5q61 0 99 5v-96z" />
    <glyph glyph-name="dollar.numerator" horiz-adv-x="438" 
d="M52 310v84q62 -6 147 -6q68 0 68 41q0 16 -11 25.5t-43 21.5l-61 24q-55 22 -83.5 52.5t-28.5 82.5q0 103 123 123v81h112v-78q59 -4 107 -14v-84q-93 8 -148 8q-69 0 -69 -35q0 -15 11 -24.5t41 -19.5l59 -21q62 -22 90 -52t28 -83q0 -56 -31 -90.5t-88 -44.5v-83h-112
v79q-57 3 -111 13z" />
    <glyph glyph-name="hyphen.numerator" horiz-adv-x="247" 
d="M199 464h-152v88h152v-88z" />
    <glyph glyph-name="parenleft.numerator" horiz-adv-x="287" 
d="M246 228h-112q-81 110 -81 262v5q0 152 81 264h112q-75 -117 -75 -264v-5q0 -147 75 -262z" />
    <glyph glyph-name="parenright.numerator" horiz-adv-x="287" 
d="M234 490q0 -151 -82 -262h-111q75 115 75 262v5q0 147 -75 264h111q82 -114 82 -264v-5z" />
    <glyph glyph-name="parenleft.cap" horiz-adv-x="338" 
d="M302 0h-136q-46 61 -80.5 159.5t-34.5 209.5v6q0 111 34.5 208t80.5 160h136q-102 -164 -102 -368v-6q0 -203 102 -369z" />
    <glyph glyph-name="parenright.cap" horiz-adv-x="338" 
d="M298 369q0 -111 -34.5 -209.5t-79.5 -159.5h-137q102 163 102 369v6q0 204 -102 368h137q46 -64 80 -161t34 -207v-6z" />
    <glyph glyph-name="bracketleft.cap" horiz-adv-x="365" 
d="M321 0h-254v743h254v-113h-103v-518h103v-112z" />
    <glyph glyph-name="bracketright.cap" horiz-adv-x="365" 
d="M298 0h-254v112h103v518h-103v113h254v-743z" />
    <glyph glyph-name="braceleft.cap" horiz-adv-x="390" 
d="M348 0h-52q-124 0 -166.5 34.5t-42.5 128.5v81q0 37 -10.5 54.5t-37.5 34.5v77q27 17 37.5 34t10.5 55v80q0 96 42.5 130t166.5 34h52v-114h-50q-39 0 -49 -8t-10 -42v-80q0 -51 -13.5 -78.5t-46.5 -49.5q33 -22 46.5 -49.5t13.5 -77.5v-81q0 -34 10 -42t49 -8h50v-113z
" />
    <glyph glyph-name="braceright.cap" horiz-adv-x="390" 
d="M348 333q-28 -17 -38 -34t-10 -55v-81q0 -94 -43 -128.5t-167 -34.5h-51v113h50q39 0 48.5 8t9.5 42v81q0 50 14 77.5t47 49.5q-33 22 -46.5 49.5t-13.5 78.5v80q0 34 -10 42t-49 8h-50v114h51q125 0 167.5 -34t42.5 -130v-80q0 -38 10 -55t38 -34v-77z" />
    <glyph glyph-name="exclamdown.cap" horiz-adv-x="330" 
d="M79 743h179v-164h-179v164zM250 521l16 -557h-194l17 557h161z" />
    <glyph glyph-name="questiondown.cap" horiz-adv-x="541" 
d="M292 -49q-119 0 -178 40.5t-59 126.5v8q0 51 22.5 93t81.5 97q67 66 85.5 99.5t18.5 77.5v26h151v-26q0 -70 -13.5 -111.5t-62.5 -94.5q-47 -50 -63 -78t-16 -55v-6q0 -34 22.5 -46.5t74.5 -12.5q56 0 154 8v-114q-91 -32 -218 -32zM425 579h-174v164h174v-164z" />
    <glyph glyph-name="guillemotleft.cap" horiz-adv-x="773" 
d="M726 158h-180l-154 222l154 221h180l-150 -221zM230 380l150 -222h-180l-154 222l154 221h180z" />
    <glyph glyph-name="guillemotright.cap" horiz-adv-x="773" 
d="M727 380l-154 -222h-179l148 222l-148 221h179zM226 601l155 -221l-155 -222h-179l150 222l-150 221h179z" />
    <glyph glyph-name="guilsinglleft.cap" horiz-adv-x="425" 
d="M378 158h-180l-152 222l152 221h180l-148 -221z" />
    <glyph glyph-name="guilsinglright.cap" horiz-adv-x="425" 
d="M226 158h-180l148 222l-148 221h180l152 -221z" />
    <glyph glyph-name="hyphen.cap" horiz-adv-x="357" 
d="M299 332h-242v108h242v-108z" />
    <glyph glyph-name="endash.cap" horiz-adv-x="454" 
d="M396 332h-339v108h339v-108z" />
    <glyph glyph-name="emdash.cap" horiz-adv-x="624" 
d="M566 332h-509v108h509v-108z" />
    <glyph glyph-name="periodcentered.cap" horiz-adv-x="302" 
d="M229 300h-157v164h157v-164z" />
    <glyph glyph-name="at.cap" horiz-adv-x="884" 
d="M837 461q0 -324 -381 -324q-120 0 -175 37.5t-55 122.5q0 41 5 81q12 110 66.5 158.5t156.5 48.5q90 0 182 -22l-33 -316q138 36 138 215q0 222 -263 222q-269 0 -325 -286q-13 -65 -13 -132q0 -114 63.5 -167t204.5 -53q114 0 189 9v-60q-86 -16 -188 -16
q-185 0 -274.5 71.5t-89.5 215.5q0 75 15 147q69 344 425 344q165 0 258.5 -76t93.5 -220zM495 485q-19 3 -47 3q-41 0 -62.5 -23.5t-27.5 -95.5q-4 -48 -4 -73q0 -38 18.5 -53t63.5 -15q21 0 34 1z" />
    <glyph glyph-name="T_h" horiz-adv-x="1213" 
d="M1146 0h-174v359q0 55 -16 74.5t-58 19.5q-59 0 -115 -26v-427h-175v606h-179v-606h-187v606h-216v137h757v-197q78 39 170 39q111 0 152 -57t41 -167v-361z" />
    <glyph glyph-name="A.alt" horiz-adv-x="748" 
d="M21 0l175 611l-52 6v126h374l209 -743h-196l-53 187h-211l-54 -187h-192zM453 321l-54 197q-14 54 -23 114h-7q-11 -72 -23 -114l-53 -197h160z" />
    <glyph glyph-name="B.alt" horiz-adv-x="711" 
d="M73 0v610l-47 6v127q139 9 288 9q177 0 261.5 -44t84.5 -165v-9q0 -109 -87 -153q47 -21 69 -62.5t22 -89.5v-11q0 -55 -17 -96t-46.5 -66t-75.5 -39.5t-96 -20t-117 -5.5q-92 0 -239 9zM483 219v11q0 48 -27.5 70.5t-98.5 22.5h-104v-197q27 -1 74 -1q85 0 120.5 19
t35.5 75zM481 528v8q0 51 -34.5 66.5t-117.5 15.5q-47 0 -76 -1v-179h103q73 0 99 21.5t26 68.5z" />
    <glyph glyph-name="C.alt" horiz-adv-x="616" 
d="M584 135v-132q-29 -7 -92.5 -13.5t-108.5 -6.5q-169 0 -251.5 77t-82.5 269v86q0 192 82.5 268t251.5 76q45 0 109 -6.5t92 -14.5v-185h-115l-9 59q-38 2 -59 2q-87 0 -125 -41.5t-38 -157.5v-86q0 -117 38 -159t126 -42q72 0 182 7z" />
    <glyph glyph-name="D.alt" horiz-adv-x="738" 
d="M73 0v611l-50 8v124q123 9 306 9q187 0 273.5 -82t86.5 -258v-77q0 -180 -85 -262t-275 -82q-133 0 -256 9zM505 335v77q0 116 -39 157.5t-135 41.5h-76v-480h76q96 0 135 44t39 160z" />
    <glyph glyph-name="E.alt" horiz-adv-x="628" 
d="M579 607h-319v-162h298v-129h-298v-181h319v-135h-506v612l-46 5v126h552v-136z" />
    <glyph glyph-name="F.alt" horiz-adv-x="619" 
d="M73 0v612l-47 5v126h554v-137h-320v-162h298v-129h-298v-315h-187z" />
    <glyph glyph-name="G.alt" horiz-adv-x="705" 
d="M644 7q-125 -24 -267 -24q-57 0 -102.5 8.5t-89 31.5t-72.5 61t-46.5 100t-17.5 144v88q0 86 19.5 149.5t50 100t76.5 58t89 28.5t97 7q74 0 150 -9t110 -18v-179h-113l-10 58q-84 3 -102 3q-48 0 -78 -6.5t-55.5 -27t-37 -60.5t-11.5 -104v-88q0 -115 35 -157.5
t116 -42.5q61 0 85 2v157l-79 8v106h253v-394z" />
    <glyph glyph-name="H.alt" horiz-adv-x="800" 
d="M727 0h-187v313h-279v-313h-188v612l-47 5v126h235v-288h279v288h187v-743z" />
    <glyph glyph-name="I.alt" horiz-adv-x="345" 
d="M313 0h-281v126l47 4v482l-47 5v126h281v-126l-47 -5v-482l47 -4v-126z" />
    <glyph glyph-name="J.alt" horiz-adv-x="345" 
d="M313 617l-47 -5v-635q0 -102 -47 -147t-151 -45q-59 0 -99 9v112h53q36 0 46.5 13t10.5 51v642l-47 5v126h281v-126z" />
    <glyph glyph-name="K.alt" horiz-adv-x="738" 
d="M731 0h-226l-241 345v-345h-188v612l-46 5v126h234v-344l254 344h216l-277 -367z" />
    <glyph glyph-name="M.alt" horiz-adv-x="896" 
d="M823 0h-180v369q0 64 4 121h-2q-18 -40 -48 -95l-95 -174h-109l-93 174q-23 42 -48 95h-2q3 -64 3 -121v-369h-180v612l-47 5v126h230l144 -264q23 -41 46 -91h2q31 64 47 92l145 263h183v-743z" />
    <glyph glyph-name="N.alt" horiz-adv-x="776" 
d="M703 0h-194l-215 386q-29 52 -52 102h-2q3 -117 3 -120v-368h-170v612l-47 5v126h238l217 -379q27 -49 53 -105h2q-3 52 -3 127v357h170v-743z" />
    <glyph glyph-name="P.alt" horiz-adv-x="691" 
d="M253 0h-180v612l-47 5v126q133 9 285 9q63 0 111 -5.5t94.5 -21t76.5 -41.5t48.5 -70t18.5 -104v-10q0 -75 -26 -125.5t-75 -76t-103 -35t-127 -9.5q-36 0 -76 1v-255zM253 395h71q83 0 119 22t36 83v10q-1 61 -36.5 81.5t-118.5 20.5q-15 0 -40.5 -0.5t-30.5 -0.5v-216z
" />
    <glyph glyph-name="Q.alt" horiz-adv-x="745" 
d="M696 331q0 -151 -62.5 -235.5t-176.5 -104.5v-178h-173v180q-112 20 -173.5 104t-61.5 234v79q0 182 86.5 265.5t236.5 83.5q151 0 237.5 -83.5t86.5 -265.5v-79zM512 331v80q0 111 -35 157t-105 46q-69 0 -104 -46t-35 -157v-80q0 -111 35 -157t104 -46q70 0 105 46
t35 157z" />
    <glyph glyph-name="R.alt" horiz-adv-x="718" 
d="M704 0h-188l-147 265h-116v-265h-180v612l-47 5v126q158 9 287 9q61 0 108 -5t93.5 -20.5t76.5 -41.5t48.5 -70t18.5 -103v-7q0 -148 -118 -205zM477 502v7q0 61 -36 82t-122 21q-33 0 -66 -1v-216h68q85 0 120.5 23.5t35.5 83.5z" />
    <glyph glyph-name="S.alt" horiz-adv-x="646" 
d="M65 7v121q158 -11 235 -11q59 0 86.5 19.5t27.5 61.5q0 31 -17 48.5t-70 40.5l-108 46q-88 37 -130.5 86t-42.5 135q0 108 72.5 156.5t217.5 48.5q131 0 241 -25v-168h-113l-12 57q-51 3 -106 3q-60 0 -88 -14.5t-28 -51.5q0 -28 16.5 -44t67.5 -37l105 -44
q101 -42 141 -91.5t40 -135.5q0 -113 -72 -169t-206 -56q-161 0 -257 24z" />
    <glyph glyph-name="U.alt" horiz-adv-x="763" 
d="M695 301q0 -158 -81 -238t-232 -80q-152 0 -233 80t-81 238v312l-47 4v126h232v-437q0 -101 27.5 -141.5t101.5 -40.5t102 40.5t28 141.5v437h183v-442z" />
    <glyph glyph-name="Z.alt" horiz-adv-x="658" 
d="M607 139v-139h-556v142l331 462h-204l-9 -53h-109v192h538v-144l-330 -460h339z" />
    <glyph glyph-name="a.alt" horiz-adv-x="609" 
d="M547 0h-159v37q-77 -52 -179 -52q-81 0 -124 41t-43 122v23q0 44 14 75.5t36.5 50t60.5 28.5t75.5 13t91.5 3h53v31q0 53 -19 68.5t-86 15.5q-40 0 -63 -1l-9 -45h-112v140q32 12 94 23.5t126 11.5q133 0 188 -48.5t55 -164.5v-372zM379 123v128h-58q-64 0 -88.5 -14
t-24.5 -60v-23q0 -58 65 -58q60 0 106 27z" />
    <glyph glyph-name="b.alt" horiz-adv-x="653" 
d="M606 256q0 -144 -70.5 -207.5t-216.5 -63.5q-104 0 -251 16v650l-45 5v123h220v-214q49 21 116 21q127 0 187 -63.5t60 -196.5v-70zM433 257v70q0 72 -21 99t-77 27q-60 0 -94 -17v-315q54 -3 80 -3q62 0 87 29.5t25 109.5z" />
    <glyph glyph-name="c.alt" horiz-adv-x="533" 
d="M492 7q-91 -22 -191 -22q-254 0 -254 268v64q0 136 62 202t192 66q122 0 191 -22v-157h-108l-9 44q-28 2 -45 2q-58 0 -84 -28t-26 -107v-64q0 -80 27 -108t87 -28q36 0 158 8v-118z" />
    <glyph glyph-name="d.alt" horiz-adv-x="656" 
d="M587 0h-161v29q-71 -44 -161 -44q-104 0 -160 65t-56 197v70q0 144 66 206t193 62q47 0 105 -9v94l-50 5v104h224v-779zM415 137v309q-50 8 -86 8q-57 0 -81.5 -27.5t-24.5 -109.5v-70q0 -72 21.5 -101t76.5 -29q46 0 94 20z" />
    <glyph glyph-name="g.alt" horiz-adv-x="629" 
d="M596 -33q0 -97 -72 -140.5t-214 -43.5q-139 0 -207.5 42.5t-68.5 136.5q0 68 52 114q-44 31 -44 80q0 61 61 100q-47 44 -47 133q0 46 11 79t38.5 61t80 42t131.5 14h281v-87l-49 -13q27 -38 27 -96q0 -104 -67.5 -149.5t-193.5 -45.5q-66 0 -113 14q-23 -18 -23 -39
q0 -27 46 -27h86q153 0 219 -35t66 -140zM429 -37q0 43 -23 57.5t-95 14.5h-90q-24 -24 -24 -71q0 -42 23.5 -59.5t90.5 -17.5q66 0 92 18t26 58zM411 389q0 46 -19.5 66t-76.5 20t-75 -20.5t-18 -65.5t19 -65.5t74 -20.5q57 0 76.5 20.5t19.5 65.5z" />
    <glyph glyph-name="h.alt" 
d="M606 0h-174v359q0 55 -16.5 75t-58.5 20q-57 0 -115 -27v-427h-174v651l-45 5v123h219v-234q80 40 171 40q111 0 152 -57t41 -167v-361z" />
    <glyph glyph-name="i.alt" horiz-adv-x="318" 
d="M246 0h-174v441l-46 6v123h220v-570zM250 648h-181v131h181v-131z" />
    <glyph glyph-name="j.alt" horiz-adv-x="318" 
d="M246 -35q0 -103 -41.5 -143t-142.5 -40q-66 0 -98 8v110q10 0 28 -0.5t28 -0.5q33 0 42.5 13t9.5 53v477l-46 5v123h220v-605zM250 648h-181v131h181v-131z" />
    <glyph glyph-name="k.alt" horiz-adv-x="624" 
d="M615 0h-197l-176 264v-264h-174v651l-45 5v123h219v-461l179 252h186l-198 -274z" />
    <glyph glyph-name="l.alt" horiz-adv-x="317" 
d="M246 0h-174v651l-46 5v123h220v-779z" />
    <glyph glyph-name="m.alt" horiz-adv-x="962" 
d="M897 0h-174v371q0 25 -1 36.5t-6.5 24.5t-18 18t-34.5 5q-43 0 -96 -28q3 -18 3 -56v-371h-174v371q0 24 -1 36.5t-6.5 25t-17 17.5t-31.5 5q-40 0 -98 -29v-426h-174v442l-45 5v123h209v-45q76 60 172 60q95 0 135 -62q90 62 180 62q46 0 79 -11.5t51.5 -30t29.5 -47
t14.5 -56.5t3.5 -65v-375z" />
    <glyph glyph-name="n.alt" horiz-adv-x="671" 
d="M606 0h-174v361q0 53 -14 73t-54 20q-45 0 -122 -32v-422h-174v441l-45 6v123h209v-46q98 61 187 61q62 0 101.5 -16.5t57 -50.5t23 -68.5t5.5 -88.5v-361z" />
    <glyph glyph-name="p.alt" horiz-adv-x="654" 
d="M242 -203h-174v645l-45 5v123h206v-36q75 51 169 51q101 0 155 -63.5t54 -207.5v-51q0 -149 -68 -213t-197 -64q-57 0 -100 9v-198zM433 263v51q0 80 -21 109t-72 29q-46 0 -100 -24v-303q56 -9 86 -9q57 0 82 30t25 117z" />
    <glyph glyph-name="r.alt" horiz-adv-x="435" 
d="M242 0h-174v442l-45 5v123h207v-47q68 62 188 62v-146q-98 0 -176 -26v-413z" />
    <glyph glyph-name="s.alt" horiz-adv-x="543" 
d="M51 8v106q106 -11 195 -11q51 0 72 12t21 39q0 24 -15.5 34.5t-74.5 33.5l-46 17q-83 32 -122 74t-39 110q0 89 59 125.5t176 36.5q136 0 211 -23v-137h-113l-10 36q-46 2 -72 2q-48 0 -66 -6t-18 -30q0 -21 14.5 -31t63.5 -29l51 -19q98 -38 133.5 -76t35.5 -112
q0 -174 -252 -174q-126 0 -204 22z" />
    <glyph glyph-name="u.alt" 
d="M431 570h174v-570h-164v46q-105 -61 -200 -61q-45 0 -78 13t-51 32.5t-28.5 50.5t-13.5 60t-3 68v233l-46 5v123h220v-361q0 -53 13.5 -73t54.5 -20q43 0 122 32v422z" />
    <glyph glyph-name="y.alt" 
d="M605 -15q0 -101 -59.5 -151t-208.5 -50q-71 0 -141.5 8.5t-95.5 14.5v104q173 -8 222 -8q69 0 89 17.5t20 64.5v19q-51 -8 -91 -8q-135 0 -204 64t-69 201l1 309h172v-309q0 -74 25.5 -104t87.5 -30q49 0 79 5v438h173v-585z" />
    <glyph glyph-name="z.alt" horiz-adv-x="548" 
d="M505 123v-123h-465v128l269 317h-153l-8 -39h-99v164h455v-130l-267 -317h268z" />
    <glyph glyph-name="a.alt2" horiz-adv-x="654" 
d="M586 0h-162v29q-68 -43 -161 -43q-104 0 -160 64.5t-56 196.5v70q0 149 68.5 208.5t224.5 59.5q117 0 246 -15v-570zM413 137v313q-39 4 -84 4q-59 0 -83.5 -27t-24.5 -110v-70q0 -72 22 -101t76 -29q45 0 94 20z" />
    <glyph glyph-name="u.alt2" horiz-adv-x="672" 
d="M605 264q0 -143 -66.5 -211t-203.5 -68q-134 0 -201 68t-67 211v306h174v-306q0 -81 20.5 -114t73.5 -33t74.5 33.5t21.5 113.5v306h174v-306z" />
    <glyph glyph-name="Aacute.alt" horiz-adv-x="748" 
d="M586 935l-167 -146h-163l132 146h198zM21 0l175 611l-52 6v126h374l209 -743h-196l-53 187h-211l-54 -187h-192zM453 321l-54 197q-14 54 -23 114h-7q-11 -72 -23 -114l-53 -197h160z" />
    <glyph glyph-name="Acircumflex.alt" horiz-adv-x="748" 
d="M612 789h-152l-87 82l-86 -82h-153l135 146h209zM21 0l175 611l-52 6v126h374l209 -743h-196l-53 187h-211l-54 -187h-192zM453 321l-54 197q-14 54 -23 114h-7q-11 -72 -23 -114l-53 -197h160z" />
    <glyph glyph-name="Adieresis.alt" horiz-adv-x="748" 
d="M570 800h-140v127h140v-127zM316 927v-127h-140v127h140zM21 0l175 611l-52 6v126h374l209 -743h-196l-53 187h-211l-54 -187h-192zM453 321l-54 197q-14 54 -23 114h-7q-11 -72 -23 -114l-53 -197h160z" />
    <glyph glyph-name="Agrave.alt" horiz-adv-x="748" 
d="M476 789h-162l-167 146h198zM21 0l175 611l-52 6v126h374l209 -743h-196l-53 187h-211l-54 -187h-192zM453 321l-54 197q-14 54 -23 114h-7q-11 -72 -23 -114l-53 -197h160z" />
    <glyph glyph-name="Aring.alt" horiz-adv-x="748" 
d="M516 901q0 -58 -39 -90t-103 -32t-103.5 32t-39.5 90t40 90t103 32t102.5 -32t39.5 -90zM429 901q0 48 -55 48t-55 -48t55 -48t55 48zM21 0l175 611l-52 6v126h374l209 -743h-196l-53 187h-211l-54 -187h-192zM453 321l-54 197q-14 54 -23 114h-7q-11 -72 -23 -114
l-53 -197h160z" />
    <glyph glyph-name="Atilde.alt" horiz-adv-x="748" 
d="M600 923q0 -139 -118 -139q-47 0 -105 31l-47 26q-34 20 -54 20q-18 0 -24.5 -11t-6.5 -36v-25h-99v25q0 71 33 104.5t90 33.5q45 0 98 -29l48 -26q39 -21 57 -21t24.5 11t6.5 36v24h97v-24zM21 0l175 611l-52 6v126h374l209 -743h-196l-53 187h-211l-54 -187h-192z
M453 321l-54 197q-14 54 -23 114h-7q-11 -72 -23 -114l-53 -197h160z" />
    <glyph glyph-name="Ccedilla.alt" horiz-adv-x="616" 
d="M455 -63l-131 -140h-160l106 140h185zM584 135v-132q-29 -7 -92.5 -13.5t-108.5 -6.5q-169 0 -251.5 77t-82.5 269v86q0 192 82.5 268t251.5 76q45 0 109 -6.5t92 -14.5v-185h-115l-9 59q-38 2 -59 2q-87 0 -125 -41.5t-38 -157.5v-86q0 -117 38 -159t126 -42q72 0 182 7
z" />
    <glyph glyph-name="Eacute.alt" horiz-adv-x="628" 
d="M553 935l-166 -146h-163l132 146h197zM579 607h-319v-162h298v-129h-298v-181h319v-135h-506v612l-46 5v126h552v-136z" />
    <glyph glyph-name="Ecircumflex.alt" horiz-adv-x="628" 
d="M562 789h-153l-86 82l-87 -82h-152l135 146h208zM579 607h-319v-162h298v-129h-298v-181h319v-135h-506v612l-46 5v126h552v-136z" />
    <glyph glyph-name="Edieresis.alt" horiz-adv-x="628" 
d="M513 799h-140v127h140v-127zM259 926v-127h-140v127h140zM579 607h-319v-162h298v-129h-298v-181h319v-135h-506v612l-46 5v126h552v-136z" />
    <glyph glyph-name="Egrave.alt" horiz-adv-x="628" 
d="M423 789h-162l-167 146h198zM579 607h-319v-162h298v-129h-298v-181h319v-135h-506v612l-46 5v126h552v-136z" />
    <glyph glyph-name="Eth.alt" horiz-adv-x="738" 
d="M689 335q0 -180 -85 -262t-275 -82q-145 0 -256 9v318h-50v126h50v167l-50 8v124q125 9 306 9q187 0 273.5 -82t86.5 -258v-77zM255 318v-187h76q96 0 135 44t39 160v77q0 116 -39 157.5t-135 41.5h-76v-167h110v-126h-110z" />
    <glyph glyph-name="Iacute.alt" horiz-adv-x="345" 
d="M392 935l-166 -146h-163l132 146h197zM313 0h-281v126l47 4v482l-47 5v126h281v-126l-47 -5v-482l47 -4v-126z" />
    <glyph glyph-name="Icircumflex.alt" horiz-adv-x="345" 
d="M414 789h-153l-86 82l-87 -82h-152l135 146h208zM313 0h-281v126l47 4v482l-47 5v126h281v-126l-47 -5v-482l47 -4v-126z" />
    <glyph glyph-name="Idieresis.alt" horiz-adv-x="345" 
d="M369 800h-140v127h140v-127zM115 927v-127h-141v127h141zM313 0h-281v126l47 4v482l-47 5v126h281v-126l-47 -5v-482l47 -4v-126z" />
    <glyph glyph-name="Igrave.alt" horiz-adv-x="345" 
d="M288 789h-162l-167 146h198zM313 0h-281v126l47 4v482l-47 5v126h281v-126l-47 -5v-482l47 -4v-126z" />
    <glyph glyph-name="Ntilde.alt" horiz-adv-x="776" 
d="M613 923q0 -139 -119 -139q-46 0 -105 31l-47 26q-34 20 -54 20q-31 0 -31 -47v-25h-99v25q0 71 33.5 104.5t89.5 33.5q45 0 99 -29l47 -26q38 -21 57 -21q18 0 24.5 11t6.5 36v24h98v-24zM703 0h-194l-215 386q-29 52 -52 102h-2q3 -117 3 -120v-368h-170v612l-47 5v126
h238l217 -379q27 -49 53 -105h2q-3 52 -3 127v357h170v-743z" />
    <glyph glyph-name="Scaron.alt" horiz-adv-x="646" 
d="M88 935h153l86 -82l87 82h152l-134 -146h-209zM65 7v121q158 -11 235 -11q59 0 86.5 19.5t27.5 61.5q0 31 -17 48.5t-70 40.5l-108 46q-88 37 -130.5 86t-42.5 135q0 108 72.5 156.5t217.5 48.5q131 0 241 -25v-168h-113l-12 57q-51 3 -106 3q-60 0 -88 -14.5t-28 -51.5
q0 -28 16.5 -44t67.5 -37l105 -44q101 -42 141 -91.5t40 -135.5q0 -113 -72 -169t-206 -56q-161 0 -257 24z" />
    <glyph glyph-name="Uacute.alt" horiz-adv-x="763" 
d="M612 935l-167 -146h-163l132 146h198zM695 301q0 -158 -81 -238t-232 -80q-152 0 -233 80t-81 238v312l-47 4v126h232v-437q0 -101 27.5 -141.5t101.5 -40.5t102 40.5t28 141.5v437h183v-442z" />
    <glyph glyph-name="Ucircumflex.alt" horiz-adv-x="763" 
d="M620 789h-152l-87 82l-86 -82h-153l135 146h209zM695 301q0 -158 -81 -238t-232 -80q-152 0 -233 80t-81 238v312l-47 4v126h232v-437q0 -101 27.5 -141.5t101.5 -40.5t102 40.5t28 141.5v437h183v-442z" />
    <glyph glyph-name="Udieresis.alt" horiz-adv-x="763" 
d="M579 800h-140v127h140v-127zM325 927v-127h-141v127h141zM695 301q0 -158 -81 -238t-232 -80q-152 0 -233 80t-81 238v312l-47 4v126h232v-437q0 -101 27.5 -141.5t101.5 -40.5t102 40.5t28 141.5v437h183v-442z" />
    <glyph glyph-name="Ugrave.alt" horiz-adv-x="763" 
d="M476 789h-163l-166 146h197zM695 301q0 -158 -81 -238t-232 -80q-152 0 -233 80t-81 238v312l-47 4v126h232v-437q0 -101 27.5 -141.5t101.5 -40.5t102 40.5t28 141.5v437h183v-442z" />
    <glyph glyph-name="Zcaron.alt" horiz-adv-x="658" 
d="M97 935h152l87 -82l86 82h153l-135 -146h-208zM607 139v-139h-556v142l331 462h-204l-9 -53h-109v192h538v-144l-330 -460h339z" />
    <glyph glyph-name="aacute.alt" horiz-adv-x="609" 
d="M539 777l-167 -146h-162l131 146h198zM547 0h-159v37q-77 -52 -179 -52q-81 0 -124 41t-43 122v23q0 44 14 75.5t36.5 50t60.5 28.5t75.5 13t91.5 3h53v31q0 53 -19 68.5t-86 15.5q-40 0 -63 -1l-9 -45h-112v140q32 12 94 23.5t126 11.5q133 0 188 -48.5t55 -164.5v-372z
M379 123v128h-58q-64 0 -88.5 -14t-24.5 -60v-23q0 -58 65 -58q60 0 106 27z" />
    <glyph glyph-name="acircumflex.alt" horiz-adv-x="609" 
d="M558 631h-152l-87 82l-86 -82h-153l135 146h208zM547 0h-159v37q-77 -52 -179 -52q-81 0 -124 41t-43 122v23q0 44 14 75.5t36.5 50t60.5 28.5t75.5 13t91.5 3h53v31q0 53 -19 68.5t-86 15.5q-40 0 -63 -1l-9 -45h-112v140q32 12 94 23.5t126 11.5q133 0 188 -48.5
t55 -164.5v-372zM379 123v128h-58q-64 0 -88.5 -14t-24.5 -60v-23q0 -58 65 -58q60 0 106 27z" />
    <glyph glyph-name="adieresis.alt" horiz-adv-x="609" 
d="M514 646h-140v127h140v-127zM260 773v-127h-140v127h140zM547 0h-159v37q-77 -52 -179 -52q-81 0 -124 41t-43 122v23q0 44 14 75.5t36.5 50t60.5 28.5t75.5 13t91.5 3h53v31q0 53 -19 68.5t-86 15.5q-40 0 -63 -1l-9 -45h-112v140q32 12 94 23.5t126 11.5
q133 0 188 -48.5t55 -164.5v-372zM379 123v128h-58q-64 0 -88.5 -14t-24.5 -60v-23q0 -58 65 -58q60 0 106 27z" />
    <glyph glyph-name="agrave.alt" horiz-adv-x="609" 
d="M433 631h-162l-167 146h198zM547 0h-159v37q-77 -52 -179 -52q-81 0 -124 41t-43 122v23q0 44 14 75.5t36.5 50t60.5 28.5t75.5 13t91.5 3h53v31q0 53 -19 68.5t-86 15.5q-40 0 -63 -1l-9 -45h-112v140q32 12 94 23.5t126 11.5q133 0 188 -48.5t55 -164.5v-372zM379 123
v128h-58q-64 0 -88.5 -14t-24.5 -60v-23q0 -58 65 -58q60 0 106 27z" />
    <glyph glyph-name="ampersand.alt" horiz-adv-x="831" 
d="M779 0h-176l-41 38q-81 -54 -224 -54q-283 0 -283 200v5q0 66 33 113.5t110 86.5l-11 10q-51 50 -73.5 88.5t-22.5 86.5v9q0 91 66.5 133.5t199.5 42.5t197 -42t64 -134v-9q0 -65 -38.5 -113.5t-145.5 -99.5l142 -134q24 52 24 137v16h135v-16q0 -146 -59 -231l103 -98
v-35zM471 127l-167 162q-69 -37 -69 -101v-5q0 -85 119 -85q74 0 117 29zM442 564v7q0 33 -20.5 45.5t-63.5 12.5q-44 0 -66.5 -12.5t-22.5 -45.5v-7q0 -29 12 -48.5t52 -56.5l12 -11q59 35 78 59.5t19 56.5z" />
    <glyph glyph-name="aring.alt" horiz-adv-x="609" 
d="M460 738q0 -58 -39 -89.5t-102 -31.5q-64 0 -104 32t-40 89q0 58 40 90t104 32q63 0 102 -32t39 -90zM374 739q0 48 -55 48q-56 0 -56 -48t56 -48q55 0 55 48zM547 0h-159v37q-77 -52 -179 -52q-81 0 -124 41t-43 122v23q0 44 14 75.5t36.5 50t60.5 28.5t75.5 13t91.5 3
h53v31q0 53 -19 68.5t-86 15.5q-40 0 -63 -1l-9 -45h-112v140q32 12 94 23.5t126 11.5q133 0 188 -48.5t55 -164.5v-372zM379 123v128h-58q-64 0 -88.5 -14t-24.5 -60v-23q0 -58 65 -58q60 0 106 27z" />
    <glyph glyph-name="atilde.alt" horiz-adv-x="609" 
d="M544 767q0 -139 -119 -139q-46 0 -104 31l-47 26q-34 20 -55 20q-31 0 -31 -48v-24h-98v24q0 139 123 139q44 0 98 -29l48 -26q38 -21 57 -21q17 0 23.5 11t6.5 36v24h98v-24zM547 0h-159v37q-77 -52 -179 -52q-81 0 -124 41t-43 122v23q0 44 14 75.5t36.5 50t60.5 28.5
t75.5 13t91.5 3h53v31q0 53 -19 68.5t-86 15.5q-40 0 -63 -1l-9 -45h-112v140q32 12 94 23.5t126 11.5q133 0 188 -48.5t55 -164.5v-372zM379 123v128h-58q-64 0 -88.5 -14t-24.5 -60v-23q0 -58 65 -58q60 0 106 27z" />
    <glyph glyph-name="ccedilla.alt" horiz-adv-x="533" 
d="M401 -63l-131 -140h-159l105 140h185zM492 7q-91 -22 -191 -22q-254 0 -254 268v64q0 136 62 202t192 66q122 0 191 -22v-157h-108l-9 44q-28 2 -45 2q-58 0 -84 -28t-26 -107v-64q0 -80 27 -108t87 -28q36 0 158 8v-118z" />
    <glyph glyph-name="dotlessi.alt" horiz-adv-x="318" 
d="M246 0h-174v441l-46 6v123h220v-570z" />
    <glyph glyph-name="iacute.alt" horiz-adv-x="318" 
d="M246 0h-174v441l-46 6v123h220v-570zM381 777l-166 -146h-163l132 146h197z" />
    <glyph glyph-name="icircumflex.alt" horiz-adv-x="318" 
d="M246 0h-174v441l-46 6v123h220v-570zM398 631h-152l-87 82l-86 -82h-153l135 146h209z" />
    <glyph glyph-name="idieresis.alt" horiz-adv-x="318" 
d="M246 0h-174v441l-46 6v123h220v-570zM355 645h-139v127h139v-127zM101 772v-127h-140v127h140z" />
    <glyph glyph-name="igrave.alt" horiz-adv-x="318" 
d="M246 0h-174v441l-46 6v123h220v-570zM271 631h-162l-167 146h198z" />
    <glyph glyph-name="lslash.alt" horiz-adv-x="328" 
d="M251 0h-174v266l-77 -68v132l77 68v253l-46 5v123h220v-228l77 68v-132l-77 -68v-419z" />
    <glyph glyph-name="ntilde.alt" horiz-adv-x="671" 
d="M568 767q0 -139 -118 -139q-47 0 -105 31l-47 26q-34 20 -54 20q-18 0 -24.5 -11.5t-6.5 -36.5v-24h-99v24q0 139 123 139q45 0 98 -29l48 -26q39 -21 57 -21t24.5 11t6.5 36v24h97v-24zM606 0h-174v361q0 53 -14 73t-54 20q-45 0 -122 -32v-422h-174v441l-45 6v123h209
v-46q98 61 187 61q62 0 101.5 -16.5t57 -50.5t23 -68.5t5.5 -88.5v-361z" />
    <glyph glyph-name="scaron.alt" horiz-adv-x="543" 
d="M41 777h152l87 -82l86 82h153l-135 -146h-208zM51 8v106q106 -11 195 -11q51 0 72 12t21 39q0 24 -15.5 34.5t-74.5 33.5l-46 17q-83 32 -122 74t-39 110q0 89 59 125.5t176 36.5q136 0 211 -23v-137h-113l-10 36q-46 2 -72 2q-48 0 -66 -6t-18 -30q0 -21 14.5 -31
t63.5 -29l51 -19q98 -38 133.5 -76t35.5 -112q0 -174 -252 -174q-126 0 -204 22z" />
    <glyph glyph-name="uacute.alt" 
d="M569 777l-167 -146h-162l131 146h198zM431 570h174v-570h-164v46q-105 -61 -200 -61q-45 0 -78 13t-51 32.5t-28.5 50.5t-13.5 60t-3 68v233l-46 5v123h220v-361q0 -53 13.5 -73t54.5 -20q43 0 122 32v422z" />
    <glyph glyph-name="ucircumflex.alt" 
d="M576 631h-153l-86 82l-87 -82h-152l135 146h208zM431 570h174v-570h-164v46q-105 -61 -200 -61q-45 0 -78 13t-51 32.5t-28.5 50.5t-13.5 60t-3 68v233l-46 5v123h220v-361q0 -53 13.5 -73t54.5 -20q43 0 122 32v422z" />
    <glyph glyph-name="udieresis.alt" 
d="M531 645h-139v127h139v-127zM277 772v-127h-140v127h140zM431 570h174v-570h-164v46q-105 -61 -200 -61q-45 0 -78 13t-51 32.5t-28.5 50.5t-13.5 60t-3 68v233l-46 5v123h220v-361q0 -53 13.5 -73t54.5 -20q43 0 122 32v422z" />
    <glyph glyph-name="ugrave.alt" 
d="M444 631h-162l-167 146h198zM431 570h174v-570h-164v46q-105 -61 -200 -61q-45 0 -78 13t-51 32.5t-28.5 50.5t-13.5 60t-3 68v233l-46 5v123h220v-361q0 -53 13.5 -73t54.5 -20q43 0 122 32v422z" />
    <glyph glyph-name="yacute.alt" 
d="M605 -15q0 -101 -59.5 -151t-209.5 -50q-71 0 -141 8.5t-95 14.5v104q173 -8 222 -8q69 0 89 17.5t20 64.5v19q-51 -8 -91 -8q-135 0 -204 64t-69 201v309h173v-309q0 -74 25 -104t88 -30q47 0 79 5v438h173v-585zM570 777l-167 -146h-163l132 146h198z" />
    <glyph glyph-name="ydieresis.alt" 
d="M605 -15q0 -101 -59.5 -151t-208.5 -50q-71 0 -141.5 8.5t-95.5 14.5v104q173 -8 222 -8q69 0 89 17.5t20 64.5v19q-51 -8 -91 -8q-135 0 -204 64t-69 201l1 309h172v-309q0 -74 25.5 -104t87.5 -30q49 0 79 5v438h173v-585zM538 645h-140v127h140v-127zM284 772v-127
h-140v127h140z" />
    <glyph glyph-name="zcaron.alt" horiz-adv-x="548" 
d="M43 777h152l87 -82l86 82h153l-135 -146h-208zM505 123v-123h-465v128l269 317h-153l-8 -39h-99v164h455v-130l-267 -317h268z" />
    <glyph glyph-name="two.alt" horiz-adv-x="651" 
d="M589 137v-137h-537v92q0 133 47.5 202t176.5 136q88 46 112.5 69.5t24.5 59.5q0 38 -28.5 53t-104.5 15q-44 0 -97 -3l-9 -62h-113v166q39 12 113 21.5t137 9.5q152 0 222 -46t70 -144q0 -77 -46 -132t-160 -113q-106 -53 -134 -83.5t-28 -93.5v-10h354z" />
    <glyph glyph-name="three.alt" horiz-adv-x="652" 
d="M602 205q0 -119 -71.5 -170.5t-224.5 -51.5q-70 0 -140.5 10.5t-106.5 22.5v115q182 -14 228 -14q71 0 100 19t29 77v17q0 46 -21.5 67t-88.5 21h-202v122h203q65 0 87 22t22 68v10q0 51 -27 68.5t-103 17.5q-54 0 -104 -3l-8 -61h-113v166q30 10 103.5 20.5t141.5 10.5
q148 0 222 -46.5t74 -158.5v-12q0 -115 -88 -162q88 -43 88 -157v-18z" />
    <glyph glyph-name="five.alt" horiz-adv-x="641" 
d="M592 220q0 -126 -77 -181.5t-223 -55.5q-131 0 -246 30v118q150 -17 208 -17q84 0 118 22.5t34 81.5v20q0 55 -31 75.5t-117 20.5h-204l34 409h480v-184h-111l-8 50h-211l-13 -148h71q165 0 230.5 -51.5t65.5 -169.5v-20z" />
    <glyph glyph-name="six.alt" horiz-adv-x="688" 
d="M639 230q0 -69 -23.5 -118.5t-65.5 -76.5t-92 -39.5t-110 -12.5q-155 0 -227 72.5t-72 235.5v166q0 76 13 128t46 93t94 61t152 20q136 0 248 -28v-168h-112l-9 60q-48 3 -105 3q-48 0 -77 -8t-43.5 -28t-18.5 -43.5t-4 -63.5v-25q60 15 132 15q64 0 109.5 -8.5t85 -31
t59.5 -65.5t20 -107v-31zM455 229v29q0 60 -25 80.5t-84 20.5q-60 0 -113 -12v-86q0 -86 28 -118.5t88 -32.5q49 0 77.5 29.5t28.5 89.5z" />
    <glyph glyph-name="seven.alt" horiz-adv-x="650" 
d="M611 595l-327 -595h-198l341 609h-253l-7 -54h-112v188h556v-148z" />
    <glyph glyph-name="dotlessj" horiz-adv-x="318" 
d="M246 -35q0 -103 -41.5 -143t-142.5 -40q-66 0 -98 8v110q10 0 28 -0.5t28 -0.5q33 0 42.5 13t9.5 53v605h174v-605z" />
    <glyph glyph-name="zero.tab" horiz-adv-x="718" 
d="M664 326q0 -343 -304 -343t-304 343v90q0 343 304 343t304 -343v-90zM476 326v90q0 115 -29 159t-87 44t-87 -44t-29 -159v-90q0 -115 29 -159t87 -44t87 44t29 159z" />
    <glyph glyph-name="one.tab" horiz-adv-x="718" 
d="M635 0h-530v126l172 8v452l-173 -43v132l225 71h134v-612l172 -8v-126z" />
    <glyph glyph-name="two.tab" horiz-adv-x="718" 
d="M620 0h-537v92q0 69 11 116.5t39.5 86t68 67.5t105.5 64q85 44 110.5 70t25.5 63q0 38 -28.5 53t-104.5 15q-114 0 -213 -11v112q105 31 244 31q152 0 222 -45.5t70 -144.5q0 -76 -45.5 -130t-160.5 -112q-105 -53 -133 -84.5t-28 -95.5v-10h354v-137z" />
    <glyph glyph-name="three.tab" horiz-adv-x="718" 
d="M634 205q0 -119 -72 -170.5t-225 -51.5q-67 0 -138.5 10.5t-107.5 22.5v114q130 -13 228 -13q71 0 100 19t29 77v17q0 45 -22 66.5t-88 21.5h-202v122h203q65 0 87 22t22 68v10q0 51 -27 68.5t-103 17.5q-90 0 -226 -11v113q31 10 104.5 20.5t140.5 10.5q149 0 223 -46.5
t74 -158.5v-12q0 -115 -88 -162q88 -43 88 -157v-18z" />
    <glyph glyph-name="four.tab" horiz-adv-x="718" 
d="M671 169h-99v-169h-187v169h-341v128l369 446h159v-446h99v-128zM394 297v249l-201 -249h201z" />
    <glyph glyph-name="five.tab" horiz-adv-x="718" 
d="M633 220q0 -125 -77 -181t-223 -56q-136 0 -246 29v116q164 -14 208 -14q84 0 116.5 22.5t32.5 81.5v20q0 56 -29.5 76t-116.5 20h-204l35 409h480v-134h-330l-13 -148h70q166 0 231.5 -51.5t65.5 -169.5v-20z" />
    <glyph glyph-name="seven.tab" horiz-adv-x="718" 
d="M645 595l-327 -595h-198l341 609h-372v134h556v-148z" />
    <glyph glyph-name="six.tab" horiz-adv-x="718" 
d="M653 230q0 -69 -23.5 -118.5t-65.5 -76.5t-92 -39.5t-110 -12.5q-155 0 -227 72.5t-72 235.5v166q0 76 13 128t46 93t94 61t153 20q135 0 247 -28v-117q-140 12 -225 12q-48 0 -77.5 -8t-44 -28t-18.5 -43.5t-4 -63.5v-25q60 15 132 15q64 0 109.5 -8.5t85 -31
t59.5 -65.5t20 -107v-31zM469 229v29q0 60 -25 80.5t-84 20.5q-60 0 -113 -12v-86q0 -86 28 -118.5t88 -32.5q49 0 77.5 29.5t28.5 89.5z" />
    <glyph glyph-name="eight.tab" horiz-adv-x="718" 
d="M664 213q0 -60 -16.5 -103t-42.5 -67.5t-68 -38t-81.5 -17.5t-95.5 -4h-5q-56 0 -95.5 4t-81.5 17.5t-67.5 38t-42 67.5t-16.5 103v7q0 109 82 163q-79 52 -79 158v9q0 63 22.5 106t65.5 64.5t93 30t119 8.5h5q69 0 119 -8.5t93.5 -30t66 -64.5t22.5 -106v-9
q0 -106 -79 -158q82 -54 82 -163v-7zM480 215v7q0 57 -17 80.5t-63 23.5h-84q-46 0 -63 -23.5t-17 -80.5v-7q0 -65 29 -87.5t90 -22.5h5q61 0 90.5 22.5t29.5 87.5zM478 535v9q0 52 -29.5 72t-88.5 20h-5q-59 0 -88 -20t-29 -72v-9q0 -47 17 -70t61 -23h84q44 0 61 23t17 70
z" />
    <glyph glyph-name="nine.tab" horiz-adv-x="718" 
d="M646 288q0 -75 -13 -127.5t-46 -94.5t-94 -62.5t-153 -20.5q-138 0 -247 28v117q148 -13 229 -13q89 0 114.5 32t25.5 111v26q-60 -15 -132 -15q-64 0 -109.5 8.5t-85 31t-59.5 65.5t-20 107v31q0 68 23.5 117.5t65.5 77t92 40t110 12.5q156 0 227.5 -70.5t71.5 -232.5
v-168zM462 394v87q0 86 -28 118.5t-88 32.5q-49 0 -77.5 -29.5t-28.5 -89.5v-29q0 -60 25 -80.5t83 -20.5q59 0 114 11z" />
    <glyph glyph-name="dieresisacute" horiz-adv-x="625" 
d="M137 646h-130v127h130v-127zM171 630l99 157h187l-132 -157h-154zM618 646h-130v127h130v-127z" />
    <glyph glyph-name="middot" horiz-adv-x="303" 
d="M234 286h-165v165h165v-165z" />
    <glyph glyph-name="dieresisgrave" horiz-adv-x="625" 
d="M618 646h-130v127h130v-127zM355 787l99 -157h-154l-133 157h188zM137 646h-130v127h130v-127z" />
    <glyph glyph-name="threequartersemdash" horiz-adv-x="750" 
d="M693 225h-636v112h636v-112z" />
    <glyph glyph-name="overscore" horiz-adv-x="647" 
d="M637 817h-628v89h628v-89z" />
    <glyph glyph-name="franc.taboldstyle" horiz-adv-x="653" 
d="M314 0h-186v99h-53v85h53v427h449v-133h-263v-106h255v-124h-255v-64h129v-85h-129v-99z" />
    <glyph glyph-name="lira.taboldstyle" horiz-adv-x="630" 
d="M550 597v-118q-100 6 -139 6q-63 0 -82 -16t-19 -68v-18h161v-67h-161v-55h161v-67h-161v-10q0 -32 -17 -59h257v-125h-450v101q39 35 39 83v10h-61v67h61v55h-61v67h61v17q0 114 54 163.5t173 49.5q101 0 184 -16z" />
    <glyph glyph-name="currency.taboldstyle" horiz-adv-x="656" 
d="M607 112l-79 -76l-80 79q-56 -32 -119 -32q-65 0 -119 32l-84 -80l-77 75l83 80q-33 52 -33 117q0 64 33 114l-84 81l78 75l83 -80q55 33 120 33q67 0 120 -33l80 78l78 -75l-82 -79q35 -56 35 -115q0 -60 -34 -116zM455 307q0 54 -36.5 88t-89.5 34t-89.5 -34t-36.5 -88
q0 -55 36.5 -89t89.5 -34q52 0 89 34t37 89z" />
    <glyph glyph-name="peseta.taboldstyle" horiz-adv-x="681" 
d="M253 0h-170v353h-49v105h49v144q114 12 225 12q60 0 105.5 -7t85.5 -23.5t65 -48t33 -77.5h52v-105h-53q-17 -87 -88.5 -122t-185.5 -35q-33 0 -69 3v-199zM430 403v11q0 42 -26.5 56.5t-84.5 14.5q-27 0 -66 -3v-152q39 -3 64 -3q56 0 84.5 17t28.5 59z" />
    <glyph glyph-name="commaaccent.alt" horiz-adv-x="491" 
d="M380 780l-67 -141h-180l95 141h152z" />
    <glyph glyph-name="undercommaaccent" horiz-adv-x="495" 
d="M358 -63l-97 -140h-153l69 140h181z" />
    <glyph glyph-name="DieresisAcute" horiz-adv-x="625" 
d="M137 807h-130v127h130v-127zM171 791l99 157h187l-132 -157h-154zM618 807h-130v127h130v-127z" />
    <glyph glyph-name="DieresisGrave" horiz-adv-x="625" 
d="M618 807h-130v127h130v-127zM355 948l99 -157h-154l-132 157h187zM137 807h-130v127h130v-127z" />
    <glyph glyph-name="cyrBreve" horiz-adv-x="513" 
d="M464 788q-9 -80 -67 -119.5t-141 -39.5q-82 0 -140 39.5t-67 119.5h101q10 -77 106 -77t108 77h100z" />
    <glyph glyph-name="cyrFlex" horiz-adv-x="513" 
d="M464 630h-100q-12 77 -108 77t-106 -77h-101q9 80 67 119.5t140 39.5q83 0 141 -39.5t67 -119.5z" />
    <glyph glyph-name="dblGrave" horiz-adv-x="621" 
d="M120 631l-166 146h185l131 -146h-150zM236 777h184l133 -146h-151z" />
    <glyph glyph-name="cyrbreve" horiz-adv-x="513" 
d="M464 788q-9 -80 -67 -119.5t-141 -39.5q-82 0 -140 39.5t-67 119.5h101q10 -77 106 -77t108 77h100z" />
    <glyph glyph-name="cyrflex" horiz-adv-x="513" 
d="M464 630h-100q-12 77 -108 77t-106 -77h-101q9 80 67 119.5t140 39.5q83 0 141 -39.5t67 -119.5z" />
    <glyph glyph-name="dblgrave" horiz-adv-x="621" 
d="M120 631l-166 146h185l131 -146h-150zM236 777h184l133 -146h-151z" />
    <glyph glyph-name="T_h.caron" horiz-adv-x="1213" 
d="M1146 0h-174v359q0 55 -16 74.5t-58 19.5q-59 0 -115 -26v-427h-175v606h-179v-606h-187v606h-216v137h757v-197q78 39 170 39q111 0 152 -57t41 -167v-361zM580 934l-135 -146h-208l-135 146h152l87 -82l86 82h153z" />
    <glyph glyph-name="T_h.commaaccent" horiz-adv-x="1213" 
d="M1146 0h-174v359q0 55 -16 74.5t-58 19.5q-59 0 -115 -26v-427h-175v606h-179v-606h-187v606h-216v137h757v-197q78 39 170 39q111 0 152 -57t41 -167v-361zM431 -63l-96 -140h-152l68 140h180z" />
    <glyph glyph-name="i.dot" horiz-adv-x="321" 
d="M247 0h-174v570h174v-570zM251 648h-181v131h181v-131z" />
    <glyph glyph-name="Amacron.alt" horiz-adv-x="748" 
d="M578 808h-409v100h409v-100zM21 0l175 611l-52 6v126h374l209 -743h-196l-53 187h-211l-54 -187h-192zM453 321l-54 197q-14 54 -23 114h-7q-11 -72 -23 -114l-53 -197h160z" />
    <glyph glyph-name="Abreve.alt" horiz-adv-x="748" 
d="M581 944q-9 -81 -67.5 -120.5t-140.5 -39.5t-140 39.5t-67 120.5h101q10 -77 106 -77q97 0 107 77h101zM21 0l175 611l-52 6v126h374l209 -743h-196l-53 187h-211l-54 -187h-192zM453 321l-54 197q-14 54 -23 114h-7q-11 -72 -23 -114l-53 -197h160z" />
    <glyph glyph-name="Aringacute.alt" horiz-adv-x="748" 
d="M727 0h-196l-53 187h-211l-54 -187h-192l175 611l-52 6v126h374zM453 321l-54 197q-14 54 -23 114h-7q-11 -72 -23 -114l-53 -197h160zM516 882q0 -58 -39 -89.5t-102 -31.5q-64 0 -104 32t-40 89q0 58 40 90t104 32q63 0 102 -32t39 -90zM430 883q0 48 -55 48
q-56 0 -56 -48q0 -49 56 -49q55 0 55 49zM611 1166l-167 -146h-162l131 146h198z" />
    <glyph glyph-name="Aogonek.alt" horiz-adv-x="748" 
d="M727 -200q-56 -17 -141 -17q-144 0 -144 102q0 72 87 120l-51 182h-211l-54 -187h-192l175 611l-52 6v126h374l209 -743q-80 -29 -108.5 -49.5t-28.5 -39.5q0 -35 53 -35q19 0 84 5v-81zM453 321l-54 197q-14 54 -23 114h-7q-11 -72 -23 -114l-53 -197h160z" />
    <glyph glyph-name="AE.alt" horiz-adv-x="1032" 
d="M984 0h-506v187h-195l-53 -187h-190l170 609l-51 5v129h825v-136h-319v-162h298v-129h-298v-181h319v-135zM478 320v310h-90q-5 -17 -12.5 -54.5t-12.5 -54.5l-54 -201h169z" />
    <glyph glyph-name="AEacute.alt" horiz-adv-x="1032" 
d="M984 0h-506v187h-195l-53 -187h-190l170 609l-51 5v129h825v-136h-319v-162h298v-129h-298v-181h319v-135zM478 320v310h-90q-5 -17 -12.5 -54.5t-12.5 -54.5l-54 -201h169zM809 935l-167 -146h-162l131 146h198z" />
    <glyph glyph-name="Cacute.alt" horiz-adv-x="616" 
d="M587 935l-166 -146h-163l132 146h197zM584 135v-132q-29 -7 -92.5 -13.5t-108.5 -6.5q-169 0 -251.5 77t-82.5 269v86q0 192 82.5 268t251.5 76q45 0 109 -6.5t92 -14.5v-185h-115l-9 59q-38 2 -59 2q-87 0 -125 -41.5t-38 -157.5v-86q0 -117 38 -159t126 -42q72 0 182 7
z" />
    <glyph glyph-name="Ccircumflex.alt" horiz-adv-x="616" 
d="M585 789h-152l-87 82l-86 -82h-153l135 146h209zM584 135v-132q-29 -7 -92.5 -13.5t-108.5 -6.5q-169 0 -251.5 77t-82.5 269v86q0 192 82.5 268t251.5 76q45 0 109 -6.5t92 -14.5v-185h-115l-9 59q-38 2 -59 2q-87 0 -125 -41.5t-38 -157.5v-86q0 -117 38 -159t126 -42
q72 0 182 7z" />
    <glyph glyph-name="Ccaron.alt" horiz-adv-x="616" 
d="M114 935h153l86 -82l87 82h152l-134 -146h-209zM584 135v-132q-29 -7 -92.5 -13.5t-108.5 -6.5q-169 0 -251.5 77t-82.5 269v86q0 192 82.5 268t251.5 76q45 0 109 -6.5t92 -14.5v-185h-115l-9 59q-38 2 -59 2q-87 0 -125 -41.5t-38 -157.5v-86q0 -117 38 -159t126 -42
q72 0 182 7z" />
    <glyph glyph-name="Cdotaccent.alt" horiz-adv-x="616" 
d="M443 800h-180v127h180v-127zM584 135v-132q-29 -7 -92.5 -13.5t-108.5 -6.5q-169 0 -251.5 77t-82.5 269v86q0 192 82.5 268t251.5 76q45 0 109 -6.5t92 -14.5v-185h-115l-9 59q-38 2 -59 2q-87 0 -125 -41.5t-38 -157.5v-86q0 -117 38 -159t126 -42q72 0 182 7z" />
    <glyph glyph-name="Dcaron.alt" horiz-adv-x="738" 
d="M73 0v611l-50 8v124q123 9 306 9q187 0 273.5 -82t86.5 -258v-77q0 -180 -85 -262t-275 -82q-133 0 -256 9zM505 335v77q0 116 -39 157.5t-135 41.5h-76v-480h76q96 0 135 44t39 160zM120 935h152l87 -82l86 82h153l-135 -146h-208z" />
    <glyph glyph-name="Dcroat.alt" horiz-adv-x="738" 
d="M689 335q0 -180 -85 -262t-275 -82q-145 0 -256 9v318h-50v126h50v167l-50 8v124q125 9 306 9q187 0 273.5 -82t86.5 -258v-77zM505 335v77q0 116 -39 157.5t-135 41.5h-76v-167h110v-126h-110v-187h76q96 0 135 44t39 160z" />
    <glyph glyph-name="Ecaron.alt" horiz-adv-x="628" 
d="M87 935h153l86 -82l87 82h152l-134 -146h-209zM579 607h-319v-162h298v-129h-298v-181h319v-135h-506v612l-46 5v126h552v-136z" />
    <glyph glyph-name="Emacron.alt" horiz-adv-x="628" 
d="M518 808h-408v100h408v-100zM579 607h-319v-162h298v-129h-298v-181h319v-135h-506v612l-46 5v126h552v-136z" />
    <glyph glyph-name="Ebreve.alt" horiz-adv-x="628" 
d="M526 944q-9 -81 -67.5 -120.5t-140.5 -39.5t-140 39.5t-68 120.5h102q10 -77 106 -77q95 0 107 77h101zM579 607h-319v-162h298v-129h-298v-181h319v-135h-506v612l-46 5v126h552v-136z" />
    <glyph glyph-name="Edotaccent.alt" horiz-adv-x="628" 
d="M410 800h-180v127h180v-127zM579 607h-319v-162h298v-129h-298v-181h319v-135h-506v612l-46 5v126h552v-136z" />
    <glyph glyph-name="Eogonek.alt" horiz-adv-x="628" 
d="M579 -200q-56 -17 -135 -17q-150 0 -150 99q0 77 123 118h-344v612l-46 5v126h552v-136h-319v-162h298v-129h-298v-181h319v-135q-79 -29 -107.5 -49.5t-28.5 -39.5q0 -35 53 -35q20 0 83 5v-81z" />
    <glyph glyph-name="Gcircumflex.alt" horiz-adv-x="705" 
d="M601 789h-152l-87 82l-86 -82h-153l135 146h208zM644 7q-125 -24 -267 -24q-57 0 -102.5 8.5t-89 31.5t-72.5 61t-46.5 100t-17.5 144v88q0 86 19.5 149.5t50 100t76.5 58t89 28.5t97 7q74 0 150 -9t110 -18v-179h-113l-10 58q-84 3 -102 3q-48 0 -78 -6.5t-55.5 -27
t-37 -60.5t-11.5 -104v-88q0 -115 35 -157.5t116 -42.5q61 0 85 2v157l-79 8v106h253v-394z" />
    <glyph glyph-name="Gbreve.alt" horiz-adv-x="705" 
d="M579 948q-9 -80 -67 -119.5t-141 -39.5q-82 0 -140 39.5t-67 119.5h101q10 -77 106 -77t108 77h100zM644 7q-125 -24 -267 -24q-57 0 -102.5 8.5t-89 31.5t-72.5 61t-46.5 100t-17.5 144v88q0 86 19.5 149.5t50 100t76.5 58t89 28.5t97 7q74 0 150 -9t110 -18v-179h-113
l-10 58q-84 3 -102 3q-48 0 -78 -6.5t-55.5 -27t-37 -60.5t-11.5 -104v-88q0 -115 35 -157.5t116 -42.5q61 0 85 2v157l-79 8v106h253v-394z" />
    <glyph glyph-name="Gdotaccent.alt" horiz-adv-x="705" 
d="M459 800h-179v127h179v-127zM644 7q-125 -24 -267 -24q-57 0 -102.5 8.5t-89 31.5t-72.5 61t-46.5 100t-17.5 144v88q0 86 19.5 149.5t50 100t76.5 58t89 28.5t97 7q74 0 150 -9t110 -18v-179h-113l-10 58q-84 3 -102 3q-48 0 -78 -6.5t-55.5 -27t-37 -60.5t-11.5 -104
v-88q0 -115 35 -157.5t116 -42.5q61 0 85 2v157l-79 8v106h253v-394z" />
    <glyph glyph-name="Gcommaaccent.alt" horiz-adv-x="705" 
d="M477 -63l-96 -140h-152l68 140h180zM644 7q-125 -24 -267 -24q-57 0 -102.5 8.5t-89 31.5t-72.5 61t-46.5 100t-17.5 144v88q0 86 19.5 149.5t50 100t76.5 58t89 28.5t97 7q74 0 150 -9t110 -18v-179h-113l-10 58q-84 3 -102 3q-48 0 -78 -6.5t-55.5 -27t-37 -60.5
t-11.5 -104v-88q0 -115 35 -157.5t116 -42.5q61 0 85 2v157l-79 8v106h253v-394z" />
    <glyph glyph-name="Hbar.alt" horiz-adv-x="800" 
d="M12 576h61v36l-47 5v126h235v-167h279v167h187v-167h61v-80h-61v-496h-187v313h-279v-313h-188v496h-61v80zM261 455h279v41h-279v-41z" />
    <glyph glyph-name="Hcircumflex.alt" horiz-adv-x="800" 
d="M637 789h-152l-87 82l-86 -82h-152l135 146h208zM727 0h-187v313h-279v-313h-188v612l-47 5v126h235v-288h279v288h187v-743z" />
    <glyph glyph-name="Itilde.alt" horiz-adv-x="345" 
d="M399 923q0 -139 -118 -139q-46 0 -105 31l-47 26q-34 20 -54 20q-18 0 -24.5 -11t-6.5 -36v-25h-99v25q0 71 33.5 104.5t89.5 33.5q45 0 99 -29l47 -26q39 -21 57 -21t24.5 11t6.5 36v24h97v-24zM313 0h-281v126l47 4v482l-47 5v126h281v-126l-47 -5v-482l47 -4v-126z
" />
    <glyph glyph-name="Imacron.alt" horiz-adv-x="345" 
d="M376 808h-409v100h409v-100zM313 0h-281v126l47 4v482l-47 5v126h281v-126l-47 -5v-482l47 -4v-126z" />
    <glyph glyph-name="Ibreve.alt" horiz-adv-x="345" 
d="M380 944q-9 -81 -67.5 -120.5t-140.5 -39.5t-140 39.5t-68 120.5h102q10 -77 106 -77q95 0 107 77h101zM313 0h-281v126l47 4v482l-47 5v126h281v-126l-47 -5v-482l47 -4v-126z" />
    <glyph glyph-name="Idotaccent.alt" horiz-adv-x="345" 
d="M263 800h-180v127h180v-127zM313 0h-281v126l47 4v482l-47 5v126h281v-126l-47 -5v-482l47 -4v-126z" />
    <glyph glyph-name="Iogonek.alt" horiz-adv-x="345" 
d="M313 0q-82 -29 -111 -49.5t-29 -39.5q0 -35 53 -35q19 0 84 5v-81q-56 -17 -135 -17q-150 0 -150 99q0 77 122 118h-115v126l47 4v482l-47 5v126h281v-126l-47 -5v-482l47 -4v-126z" />
    <glyph glyph-name="IJ.alt" 
d="M641 617l-47 -5v-635q0 -102 -47 -147t-151 -45q-59 0 -99 9v112h54q36 0 46.5 13t10.5 51v642l-48 5v126h281v-126zM313 0h-281v126l47 4v482l-47 5v126h281v-126l-47 -5v-482l47 -4v-126z" />
    <glyph glyph-name="Jcircumflex.alt" horiz-adv-x="345" 
d="M313 617l-47 -5v-635q0 -102 -47 -147t-151 -45q-59 0 -99 9v112h53q36 0 46.5 13t10.5 51v642l-47 5v126h281v-126zM411 789h-152l-87 82l-86 -82h-153l135 146h208z" />
    <glyph glyph-name="Kcommaaccent.alt" horiz-adv-x="738" 
d="M473 -63l-95 -140h-152l67 140h180zM731 0h-226l-241 345v-345h-188v612l-46 5v126h234v-344l254 344h216l-277 -367z" />
    <glyph glyph-name="Nacute.alt" horiz-adv-x="776" 
d="M611 935l-167 -146h-162l131 146h198zM703 0h-194l-215 386q-29 52 -52 102h-2q3 -117 3 -120v-368h-170v612l-47 5v126h238l217 -379q27 -49 53 -105h2q-3 52 -3 127v357h170v-743z" />
    <glyph glyph-name="Ncaron.alt" horiz-adv-x="776" 
d="M148 935h152l87 -82l86 82h153l-135 -146h-208zM703 0h-194l-215 386q-29 52 -52 102h-2q3 -117 3 -120v-368h-170v612l-47 5v126h238l217 -379q27 -49 53 -105h2q-3 52 -3 127v357h170v-743z" />
    <glyph glyph-name="Ncommaaccent.alt" horiz-adv-x="776" 
d="M494 -63l-95 -140h-152l67 140h180zM703 0h-194l-215 386q-29 52 -52 102h-2q3 -117 3 -120v-368h-170v612l-47 5v126h238l217 -379q27 -49 53 -105h2q-3 52 -3 127v357h170v-743z" />
    <glyph glyph-name="Racute.alt" horiz-adv-x="718" 
d="M704 0h-188l-147 265h-116v-265h-180v612l-47 5v126q158 9 287 9q61 0 108 -5t93.5 -20.5t76.5 -41.5t48.5 -70t18.5 -103v-7q0 -148 -118 -205zM253 395h68q85 0 120.5 23.5t35.5 83.5v7q0 61 -36 82t-122 21q-33 0 -66 -1v-216zM556 935l-167 -146h-162l131 146h198z
" />
    <glyph glyph-name="Rcaron.alt" horiz-adv-x="718" 
d="M704 0h-188l-147 265h-116v-265h-180v612l-47 5v126q158 9 287 9q61 0 108 -5t93.5 -20.5t76.5 -41.5t48.5 -70t18.5 -103v-7q0 -148 -118 -205zM253 395h68q85 0 120.5 23.5t35.5 83.5v7q0 61 -36 82t-122 21q-33 0 -66 -1v-216zM108 935h152l87 -82l86 82h153
l-135 -146h-208z" />
    <glyph glyph-name="Rcommaaccent.alt" horiz-adv-x="718" 
d="M704 0h-188l-147 265h-116v-265h-180v612l-47 5v126q158 9 287 9q61 0 108 -5t93.5 -20.5t76.5 -41.5t48.5 -70t18.5 -103v-7q0 -148 -118 -205zM253 395h68q85 0 120.5 23.5t35.5 83.5v7q0 61 -36 82t-122 21q-33 0 -66 -1v-216zM470 -63l-95 -140h-152l67 140h180z" />
    <glyph glyph-name="Sacute.alt" horiz-adv-x="646" 
d="M547 935l-167 -146h-163l132 146h198zM65 7v121q158 -11 235 -11q59 0 86.5 19.5t27.5 61.5q0 31 -17 48.5t-70 40.5l-108 46q-88 37 -130.5 86t-42.5 135q0 108 72.5 156.5t217.5 48.5q131 0 241 -25v-168h-113l-12 57q-51 3 -106 3q-60 0 -88 -14.5t-28 -51.5
q0 -28 16.5 -44t67.5 -37l105 -44q101 -42 141 -91.5t40 -135.5q0 -113 -72 -169t-206 -56q-161 0 -257 24z" />
    <glyph glyph-name="Scircumflex.alt" horiz-adv-x="646" 
d="M560 789h-152l-87 82l-86 -82h-153l135 146h209zM65 7v121q158 -11 235 -11q59 0 86.5 19.5t27.5 61.5q0 31 -17 48.5t-70 40.5l-108 46q-88 37 -130.5 86t-42.5 135q0 108 72.5 156.5t217.5 48.5q131 0 241 -25v-168h-113l-12 57q-51 3 -106 3q-60 0 -88 -14.5
t-28 -51.5q0 -28 16.5 -44t67.5 -37l105 -44q101 -42 141 -91.5t40 -135.5q0 -113 -72 -169t-206 -56q-161 0 -257 24z" />
    <glyph glyph-name="Scedilla.alt" horiz-adv-x="646" 
d="M435 -63l-131 -140h-160l105 140h186zM65 7v121q158 -11 235 -11q59 0 86.5 19.5t27.5 61.5q0 31 -17 48.5t-70 40.5l-108 46q-88 37 -130.5 86t-42.5 135q0 108 72.5 156.5t217.5 48.5q131 0 241 -25v-168h-113l-12 57q-51 3 -106 3q-60 0 -88 -14.5t-28 -51.5
q0 -28 16.5 -44t67.5 -37l105 -44q101 -42 141 -91.5t40 -135.5q0 -113 -72 -169t-206 -56q-161 0 -257 24z" />
    <glyph glyph-name="Scommaaccent.alt" horiz-adv-x="646" 
d="M447 -63l-95 -140h-152l67 140h180zM65 7v121q158 -11 235 -11q59 0 86.5 19.5t27.5 61.5q0 31 -17 48.5t-70 40.5l-108 46q-88 37 -130.5 86t-42.5 135q0 108 72.5 156.5t217.5 48.5q131 0 241 -25v-168h-113l-12 57q-51 3 -106 3q-60 0 -88 -14.5t-28 -51.5
q0 -28 16.5 -44t67.5 -37l105 -44q101 -42 141 -91.5t40 -135.5q0 -113 -72 -169t-206 -56q-161 0 -257 24z" />
    <glyph glyph-name="Utilde.alt" horiz-adv-x="763" 
d="M609 923q0 -139 -119 -139q-46 0 -105 31l-47 26q-34 20 -54 20q-31 0 -31 -47v-25h-98v25q0 71 33 104.5t89 33.5q45 0 99 -29l48 -26q37 -21 57 -21q17 0 23.5 11t6.5 36v24h98v-24zM695 301q0 -158 -81 -238t-232 -80q-152 0 -233 80t-81 238v312l-47 4v126h232v-437
q0 -101 27.5 -141.5t101.5 -40.5t102 40.5t28 141.5v437h183v-442z" />
    <glyph glyph-name="Umacron.alt" horiz-adv-x="763" 
d="M585 808h-408v100h408v-100zM695 301q0 -158 -81 -238t-232 -80q-152 0 -233 80t-81 238v312l-47 4v126h232v-437q0 -101 27.5 -141.5t101.5 -40.5t102 40.5t28 141.5v437h183v-442z" />
    <glyph glyph-name="Ubreve.alt" horiz-adv-x="763" 
d="M589 944q-9 -81 -67.5 -120.5t-140.5 -39.5t-140 39.5t-67 120.5h101q10 -77 106 -77t108 77h100zM695 301q0 -158 -81 -238t-232 -80q-152 0 -233 80t-81 238v312l-47 4v126h232v-437q0 -101 27.5 -141.5t101.5 -40.5t102 40.5t28 141.5v437h183v-442z" />
    <glyph glyph-name="Uring.alt" horiz-adv-x="763" 
d="M524 896q0 -58 -39 -90t-102 -32q-64 0 -104 32t-40 90t40 90t104 32q63 0 102 -32t39 -90zM438 896q0 48 -55 48q-56 0 -56 -48t56 -48q55 0 55 48zM695 301q0 -158 -81 -238t-232 -80q-152 0 -233 80t-81 238v312l-47 4v126h232v-437q0 -101 27.5 -141.5t101.5 -40.5
t102 40.5t28 141.5v437h183v-442z" />
    <glyph glyph-name="Uhungarumlaut.alt" horiz-adv-x="763" 
d="M755 935l-167 -146h-150l132 146h185zM294 935h185l-167 -146h-150zM695 301q0 -158 -81 -238t-232 -80q-152 0 -233 80t-81 238v312l-47 4v126h232v-437q0 -101 27.5 -141.5t101.5 -40.5t102 40.5t28 141.5v437h183v-442z" />
    <glyph glyph-name="Uogonek.alt" horiz-adv-x="763" 
d="M524 -200q-56 -17 -135 -17q-151 0 -151 102q0 63 73 103q-243 34 -243 313v312l-47 4v126h232v-437q0 -101 27.5 -141.5t101.5 -40.5t102 40.5t28 141.5v437h183v-442q0 -260 -215 -308q-93 -41 -93 -82q0 -35 53 -35q19 0 84 5v-81z" />
    <glyph glyph-name="Zacute.alt" horiz-adv-x="658" 
d="M563 935l-166 -146h-163l132 146h197zM607 139v-139h-556v142l331 462h-204l-9 -53h-109v192h538v-144l-330 -460h339z" />
    <glyph glyph-name="Zdotaccent.alt" horiz-adv-x="658" 
d="M419 800h-180v127h180v-127zM607 139v-139h-556v142l331 462h-204l-9 -53h-109v192h538v-144l-330 -460h339z" />
    <glyph glyph-name="Eng.alt" horiz-adv-x="776" 
d="M703 -23q0 -102 -47 -147t-151 -45q-59 0 -99 9v112h54q36 0 46 13t10 51v56l-222 360q-22 35 -52 102h-2q3 -114 3 -118v-370h-170v612l-47 5v126h238l217 -344q22 -36 53 -106h2q-3 54 -3 128v322h170v-766z" />
    <glyph glyph-name="amacron.alt" horiz-adv-x="609" 
d="M519 653h-409v99h409v-99zM547 0h-159v37q-77 -52 -179 -52q-81 0 -124 41t-43 122v23q0 44 14 75.5t36.5 50t60.5 28.5t75.5 13t91.5 3h53v31q0 53 -19 68.5t-86 15.5q-40 0 -63 -1l-9 -45h-112v140q32 12 94 23.5t126 11.5q133 0 188 -48.5t55 -164.5v-372zM379 123
v128h-58q-64 0 -88.5 -14t-24.5 -60v-23q0 -58 65 -58q60 0 106 27z" />
    <glyph glyph-name="abreve.alt" horiz-adv-x="609" 
d="M527 788q-9 -80 -67 -119.5t-141 -39.5q-82 0 -140 39.5t-67 119.5h101q10 -77 106 -77t108 77h100zM547 0h-159v37q-77 -52 -179 -52q-81 0 -124 41t-43 122v23q0 44 14 75.5t36.5 50t60.5 28.5t75.5 13t91.5 3h53v31q0 53 -19 68.5t-86 15.5q-40 0 -63 -1l-9 -45h-112
v140q32 12 94 23.5t126 11.5q133 0 188 -48.5t55 -164.5v-372zM379 123v128h-58q-64 0 -88.5 -14t-24.5 -60v-23q0 -58 65 -58q60 0 106 27z" />
    <glyph glyph-name="aringacute.alt" horiz-adv-x="609" 
d="M547 0h-159v37q-77 -52 -179 -52q-81 0 -124 41t-43 122v23q0 44 14 75.5t36.5 50t60.5 28.5t75.5 13t91.5 3h53v31q0 53 -19 68.5t-86 15.5q-40 0 -63 -1l-9 -45h-112v140q32 12 94 23.5t126 11.5q133 0 188 -48.5t55 -164.5v-372zM379 123v128h-58q-64 0 -88.5 -14
t-24.5 -60v-23q0 -58 65 -58q60 0 106 27zM456 727q0 -58 -39.5 -89.5t-102.5 -31.5q-64 0 -103.5 31.5t-39.5 89.5t39.5 90t103.5 32t103 -32t39 -90zM369 728q0 48 -55 48t-55 -48t55 -48t55 48zM550 1013l-167 -146h-162l131 146h198z" />
    <glyph glyph-name="aogonek.alt" horiz-adv-x="609" 
d="M547 -200q-56 -17 -138 -17q-147 0 -147 99q0 72 126 120v39q-83 -56 -179 -56q-81 0 -124 41t-43 122v23q0 44 14 75.5t36.5 50t60.5 28.5t75.5 13t91.5 3h53v31q0 53 -19 68.5t-86 15.5q-40 0 -63 -1l-9 -45h-112v140q32 12 94 23.5t126 11.5q133 0 188 -48.5
t55 -164.5v-372q-79 -29 -107.5 -49.5t-28.5 -39.5q0 -35 53 -35q20 0 83 5v-81zM379 127v124h-58q-64 0 -88.5 -14t-24.5 -60v-23q0 -58 65 -58q53 0 106 31z" />
    <glyph glyph-name="ae.alt" horiz-adv-x="963" 
d="M920 238h-374v-8q0 -65 23.5 -93t108.5 -28q124 0 215 11v-111q-94 -23 -231 -23q-157 0 -220 67q-97 -67 -233 -67q-167 0 -167 162v23q0 44 14 75.5t36.5 50t60.5 28.5t75.5 13t91.5 3h53v31q0 49 -18 66.5t-79 17.5q-46 0 -71 -1l-9 -45h-112v140q32 12 93.5 23.5
t126.5 11.5q124 0 175 -45q64 44 169 44q62 0 110 -16t78 -42t49.5 -63.5t27 -77t7.5 -85.5v-62zM750 333v8q0 56 -20.5 88t-81.5 32q-59 0 -80 -32t-21 -88v-8h203zM379 123v128h-58q-64 0 -88.5 -14t-24.5 -60v-23q0 -58 65 -58q57 0 106 27z" />
    <glyph glyph-name="aeacute.alt" horiz-adv-x="963" 
d="M920 238h-374v-8q0 -65 23.5 -93t108.5 -28q124 0 215 11v-111q-94 -23 -231 -23q-157 0 -220 67q-97 -67 -233 -67q-167 0 -167 162v23q0 44 14 75.5t36.5 50t60.5 28.5t75.5 13t91.5 3h53v31q0 49 -18 66.5t-79 17.5q-46 0 -71 -1l-9 -45h-112v140q32 12 93.5 23.5
t126.5 11.5q124 0 175 -45q64 44 169 44q62 0 110 -16t78 -42t49.5 -63.5t27 -77t7.5 -85.5v-62zM750 333v8q0 56 -20.5 88t-81.5 32q-59 0 -80 -32t-21 -88v-8h203zM379 123v128h-58q-64 0 -88.5 -14t-24.5 -60v-23q0 -58 65 -58q57 0 106 27zM730 777l-166 -146h-163
l132 146h197z" />
    <glyph glyph-name="cacute.alt" horiz-adv-x="533" 
d="M530 777l-166 -146h-163l132 146h197zM492 7q-91 -22 -191 -22q-254 0 -254 268v64q0 136 62 202t192 66q122 0 191 -22v-157h-108l-9 44q-28 2 -45 2q-58 0 -84 -28t-26 -107v-64q0 -80 27 -108t87 -28q36 0 158 8v-118z" />
    <glyph glyph-name="ccircumflex.alt" horiz-adv-x="533" 
d="M533 631h-152l-87 82l-86 -82h-153l135 146h208zM492 7q-91 -22 -191 -22q-254 0 -254 268v64q0 136 62 202t192 66q122 0 191 -22v-157h-108l-9 44q-28 2 -45 2q-58 0 -84 -28t-26 -107v-64q0 -80 27 -108t87 -28q36 0 158 8v-118z" />
    <glyph glyph-name="ccaron.alt" horiz-adv-x="533" 
d="M64 777h152l86 -82l87 82h152l-134 -146h-208zM492 7q-91 -22 -191 -22q-254 0 -254 268v64q0 136 62 202t192 66q122 0 191 -22v-157h-108l-9 44q-28 2 -45 2q-58 0 -84 -28t-26 -107v-64q0 -80 27 -108t87 -28q36 0 158 8v-118z" />
    <glyph glyph-name="cdotaccent.alt" horiz-adv-x="533" 
d="M385 651h-180v127h180v-127zM492 7q-91 -22 -191 -22q-254 0 -254 268v64q0 136 62 202t192 66q122 0 191 -22v-157h-108l-9 44q-28 2 -45 2q-58 0 -84 -28t-26 -107v-64q0 -80 27 -108t87 -28q36 0 158 8v-118z" />
    <glyph glyph-name="dcaron.alt" horiz-adv-x="833" 
d="M853 779l-95 -256h-121l60 256h156zM587 0h-161v29q-71 -44 -161 -44q-104 0 -160 65t-56 197v70q0 144 66 206t193 62q47 0 105 -9v94l-50 5v104h224v-779zM415 137v309q-50 8 -86 8q-57 0 -81.5 -27.5t-24.5 -109.5v-70q0 -72 21.5 -101t76.5 -29q46 0 94 20z" />
    <glyph glyph-name="dcroat.alt" horiz-adv-x="656" 
d="M587 0h-161v29q-71 -44 -161 -44q-104 0 -160 65t-56 197v70q0 144 66 206t193 62q47 0 105 -9v22h-168v55h168v17l-50 5v104h224v-126h55v-55h-55v-598zM415 137v309q-50 8 -86 8q-57 0 -81.5 -27.5t-24.5 -109.5v-70q0 -72 21.5 -101t76.5 -29q46 0 94 20z" />
    <glyph glyph-name="gcircumflex.alt" horiz-adv-x="629" 
d="M596 -33q0 -97 -72 -140.5t-214 -43.5q-139 0 -207.5 42.5t-68.5 136.5q0 68 52 114q-44 31 -44 80q0 61 61 100q-47 44 -47 133q0 46 11 79t38.5 61t80 42t131.5 14h281v-87l-49 -13q27 -38 27 -96q0 -104 -67.5 -149.5t-193.5 -45.5q-66 0 -113 14q-23 -18 -23 -39
q0 -27 46 -27h86q153 0 219 -35t66 -140zM429 -37q0 43 -23 57.5t-95 14.5h-90q-24 -24 -24 -71q0 -42 23.5 -59.5t90.5 -17.5q66 0 92 18t26 58zM411 389q0 46 -19.5 66t-76.5 20t-75 -20.5t-18 -65.5t19 -65.5t74 -20.5q57 0 76.5 20.5t19.5 65.5zM563 631h-153l-86 82
l-87 -82h-152l135 146h208z" />
    <glyph glyph-name="gbreve.alt" horiz-adv-x="629" 
d="M529 788q-9 -80 -67 -119.5t-141 -39.5q-82 0 -140 39.5t-67 119.5h101q10 -77 106 -77t108 77h100zM596 -33q0 -97 -72 -140.5t-214 -43.5q-139 0 -207.5 42.5t-68.5 136.5q0 68 52 114q-44 31 -44 80q0 61 61 100q-47 44 -47 133q0 46 11 79t38.5 61t80 42t131.5 14
h281v-87l-49 -13q27 -38 27 -96q0 -104 -67.5 -149.5t-193.5 -45.5q-66 0 -113 14q-23 -18 -23 -39q0 -27 46 -27h86q153 0 219 -35t66 -140zM429 -37q0 43 -23 57.5t-95 14.5h-90q-24 -24 -24 -71q0 -42 23.5 -59.5t90.5 -17.5q66 0 92 18t26 58zM411 389q0 46 -19.5 66
t-76.5 20t-75 -20.5t-18 -65.5t19 -65.5t74 -20.5q57 0 76.5 20.5t19.5 65.5z" />
    <glyph glyph-name="gdotaccent.alt" horiz-adv-x="629" 
d="M410 647h-179v127h179v-127zM596 -33q0 -97 -72 -140.5t-214 -43.5q-139 0 -207.5 42.5t-68.5 136.5q0 68 52 114q-44 31 -44 80q0 61 61 100q-47 44 -47 133q0 46 11 79t38.5 61t80 42t131.5 14h281v-87l-49 -13q27 -38 27 -96q0 -104 -67.5 -149.5t-193.5 -45.5
q-66 0 -113 14q-23 -18 -23 -39q0 -27 46 -27h86q153 0 219 -35t66 -140zM429 -37q0 43 -23 57.5t-95 14.5h-90q-24 -24 -24 -71q0 -42 23.5 -59.5t90.5 -17.5q66 0 92 18t26 58zM411 389q0 46 -19.5 66t-76.5 20t-75 -20.5t-18 -65.5t19 -65.5t74 -20.5q57 0 76.5 20.5
t19.5 65.5z" />
    <glyph glyph-name="gcommaaccent.alt" horiz-adv-x="629" 
d="M596 -33q0 -97 -72 -140.5t-214 -43.5q-139 0 -207.5 42.5t-68.5 136.5q0 68 52 114q-44 31 -44 80q0 61 61 100q-47 44 -47 133q0 46 11 79t38.5 61t80 42t131.5 14h281v-87l-49 -13q27 -38 27 -96q0 -104 -67.5 -149.5t-193.5 -45.5q-66 0 -113 14q-23 -18 -23 -39
q0 -27 46 -27h86q153 0 219 -35t66 -140zM429 -37q0 43 -23 57.5t-95 14.5h-90q-24 -24 -24 -71q0 -42 23.5 -59.5t90.5 -17.5q66 0 92 18t26 58zM411 389q0 46 -19.5 66t-76.5 20t-75 -20.5t-18 -65.5t19 -65.5t74 -20.5q57 0 76.5 20.5t19.5 65.5zM225 631l96 141h152
l-68 -141h-180z" />
    <glyph glyph-name="hbar.alt" 
d="M420 601h-178v-56q80 40 171 40q111 0 152 -57t41 -167v-361h-174v359q0 55 -16.5 75t-58.5 20q-57 0 -115 -27v-427h-174v601h-45v35h45v15l-45 5v123h219v-143h178v-35z" />
    <glyph glyph-name="hcircumflex.alt" 
d="M576 798h-152l-87 82l-86 -82h-152l135 146h208zM606 0h-174v359q0 55 -16.5 75t-58.5 20q-57 0 -115 -27v-427h-174v651l-45 5v123h219v-234q80 40 171 40q111 0 152 -57t41 -167v-361z" />
    <glyph glyph-name="itilde.alt" horiz-adv-x="318" 
d="M246 0h-174v441l-46 6v123h220v-570zM384 766q0 -139 -119 -139q-48 0 -104 30l-47 26q-36 21 -55 21q-31 0 -31 -48v-24h-98v24q0 139 123 139q44 0 98 -29l48 -26q39 -21 57 -21q17 0 23.5 11t6.5 36v24h98v-24z" />
    <glyph glyph-name="imacron.alt" horiz-adv-x="318" 
d="M246 0h-174v441l-46 6v123h220v-570zM364 653h-409v99h409v-99z" />
    <glyph glyph-name="ibreve.alt" horiz-adv-x="318" 
d="M246 0h-174v441l-46 6v123h220v-570zM365 788q-9 -81 -67 -120t-140 -39q-83 0 -141 39.5t-67 119.5h101q12 -77 107 -77t107 77h100z" />
    <glyph glyph-name="iogonek.alt" horiz-adv-x="318" 
d="M301 -200q-56 -17 -135 -17q-150 0 -150 104q0 62 56 115v439l-46 6v123h220v-570q-82 -40 -82 -89q0 -35 54 -35q18 0 83 5v-81zM250 648h-181v131h181v-131z" />
    <glyph glyph-name="ij.alt" horiz-adv-x="645" 
d="M246 0h-174v441l-46 6v123h220v-570zM250 648h-181v131h181v-131zM572 -35q0 -103 -41.5 -143t-142.5 -40q-66 0 -98 8v110q9 0 27.5 -0.5t28.5 -0.5q32 0 41.5 13t9.5 53v477l-45 5v123h220v-605zM575 648h-180v131h180v-131z" />
    <glyph glyph-name="ij.alt2" horiz-adv-x="645" 
d="M246 0h-174v441l-46 6v123h220v-570zM250 648h-181v131h181v-131zM572 -35q0 -103 -41.5 -143t-142.5 -40q-66 0 -98 8v110q10 0 28 -0.5t28 -0.5q33 0 42.5 13t9.5 53v605h174v-605zM576 648h-181v131h181v-131z" />
    <glyph glyph-name="jcircumflex.alt" horiz-adv-x="318" 
d="M246 -35q0 -103 -41.5 -143t-142.5 -40q-62 0 -98 9v110q19 -1 56 -1q33 0 42.5 13t9.5 52v477l-46 5v123h220v-605zM399 631h-153l-86 82l-87 -82h-152l135 146h208z" />
    <glyph glyph-name="kcommaaccent.alt" horiz-adv-x="624" 
d="M422 -63l-95 -140h-152l67 140h180zM615 0h-197l-176 264v-264h-174v651l-45 5v123h219v-461l179 252h186l-198 -274z" />
    <glyph glyph-name="kgreenlandic.alt" horiz-adv-x="624" 
d="M615 0h-197l-176 264v-264h-174v442l-45 5v123h219v-252l179 252h186l-198 -274z" />
    <glyph glyph-name="lacute.alt" horiz-adv-x="317" 
d="M391 955l-166 -146h-163l132 146h197zM246 0h-174v651l-46 5v123h220v-779z" />
    <glyph glyph-name="lcaron.alt" horiz-adv-x="492" 
d="M512 779l-95 -256h-121l60 256h156zM246 0h-174v651l-46 5v123h220v-779z" />
    <glyph glyph-name="lcommaaccent.alt" horiz-adv-x="317" 
d="M251 -63l-95 -140h-152l67 140h180zM246 0h-174v651l-46 5v123h220v-779z" />
    <glyph glyph-name="ldot.alt" horiz-adv-x="489" 
d="M479 286h-165v165h165v-165zM246 0h-174v651l-46 5v123h220v-779z" />
    <glyph glyph-name="nacute.alt" horiz-adv-x="671" 
d="M550 777l-167 -146h-163l132 146h198zM606 0h-174v361q0 53 -14 73t-54 20q-45 0 -122 -32v-422h-174v441l-45 6v123h209v-46q98 61 187 61q62 0 101.5 -16.5t57 -50.5t23 -68.5t5.5 -88.5v-361z" />
    <glyph glyph-name="ncaron.alt" horiz-adv-x="671" 
d="M99 777h152l87 -82l86 82h153l-135 -146h-208zM606 0h-174v361q0 53 -14 73t-54 20q-45 0 -122 -32v-422h-174v441l-45 6v123h209v-46q98 61 187 61q62 0 101.5 -16.5t57 -50.5t23 -68.5t5.5 -88.5v-361z" />
    <glyph glyph-name="ncommaaccent.alt" horiz-adv-x="671" 
d="M446 -63l-96 -140h-152l68 140h180zM606 0h-174v361q0 53 -14 73t-54 20q-45 0 -122 -32v-422h-174v441l-45 6v123h209v-46q98 61 187 61q62 0 101.5 -16.5t57 -50.5t23 -68.5t5.5 -88.5v-361z" />
    <glyph glyph-name="napostrophe.alt" horiz-adv-x="823" 
d="M758 0h-174v361q0 53 -13.5 73t-54.5 20q-45 0 -122 -32v-422h-174v441l-45 6v123h209v-46q98 61 187 61q62 0 101.5 -16.5t57 -50.5t23 -68.5t5.5 -88.5v-361zM199 779l-95 -256h-121l60 256h156z" />
    <glyph glyph-name="racute.alt" horiz-adv-x="435" 
d="M459 777l-166 -146h-163l132 146h197zM242 0h-174v442l-45 5v123h207v-47q68 62 188 62v-146q-98 0 -176 -26v-413z" />
    <glyph glyph-name="rcommaaccent.alt" horiz-adv-x="435" 
d="M292 -63l-96 -140h-152l68 140h180zM242 0h-174v442l-45 5v123h207v-47q68 62 188 62v-146q-98 0 -176 -26v-413z" />
    <glyph glyph-name="rcaron.alt" horiz-adv-x="435" 
d="M-8 777h153l86 -82l87 82h152l-135 -146h-208zM242 0h-174v442l-45 5v123h207v-47q68 62 188 62v-146q-98 0 -176 -26v-413z" />
    <glyph glyph-name="sacute.alt" horiz-adv-x="543" 
d="M503 777l-167 -146h-162l131 146h198zM51 8v106q106 -11 195 -11q51 0 72 12t21 39q0 24 -15.5 34.5t-74.5 33.5l-46 17q-83 32 -122 74t-39 110q0 89 59 125.5t176 36.5q136 0 211 -23v-137h-113l-10 36q-46 2 -72 2q-48 0 -66 -6t-18 -30q0 -21 14.5 -31t63.5 -29
l51 -19q98 -38 133.5 -76t35.5 -112q0 -174 -252 -174q-126 0 -204 22z" />
    <glyph glyph-name="scircumflex.alt" horiz-adv-x="543" 
d="M518 631h-152l-87 82l-86 -82h-152l135 146h208zM51 8v106q106 -11 195 -11q51 0 72 12t21 39q0 24 -15.5 34.5t-74.5 33.5l-46 17q-83 32 -122 74t-39 110q0 89 59 125.5t176 36.5q136 0 211 -23v-137h-113l-10 36q-46 2 -72 2q-48 0 -66 -6t-18 -30q0 -21 14.5 -31
t63.5 -29l51 -19q98 -38 133.5 -76t35.5 -112q0 -174 -252 -174q-126 0 -204 22z" />
    <glyph glyph-name="scedilla.alt" horiz-adv-x="543" 
d="M385 -63l-131 -140h-160l105 140h186zM51 8v106q106 -11 195 -11q51 0 72 12t21 39q0 24 -15.5 34.5t-74.5 33.5l-46 17q-83 32 -122 74t-39 110q0 89 59 125.5t176 36.5q136 0 211 -23v-137h-113l-10 36q-46 2 -72 2q-48 0 -66 -6t-18 -30q0 -21 14.5 -31t63.5 -29
l51 -19q98 -38 133.5 -76t35.5 -112q0 -174 -252 -174q-126 0 -204 22z" />
    <glyph glyph-name="scommaaccent.alt" horiz-adv-x="543" 
d="M381 -63l-95 -140h-152l67 140h180zM51 8v106q106 -11 195 -11q51 0 72 12t21 39q0 24 -15.5 34.5t-74.5 33.5l-46 17q-83 32 -122 74t-39 110q0 89 59 125.5t176 36.5q136 0 211 -23v-137h-113l-10 36q-46 2 -72 2q-48 0 -66 -6t-18 -30q0 -21 14.5 -31t63.5 -29l51 -19
q98 -38 133.5 -76t35.5 -112q0 -174 -252 -174q-126 0 -204 22z" />
    <glyph glyph-name="utilde.alt" 
d="M567 766q0 -139 -118 -139q-48 0 -105 30l-47 26q-36 21 -54 21t-24.5 -11.5t-6.5 -36.5v-24h-99v24q0 72 33.5 105.5t89.5 33.5q45 0 99 -29l47 -26q38 -21 57 -21q18 0 24.5 11t6.5 36v24h97v-24zM431 570h174v-570h-164v46q-105 -61 -200 -61q-45 0 -78 13t-51 32.5
t-28.5 50.5t-13.5 60t-3 68v233l-46 5v123h220v-361q0 -53 13.5 -73t54.5 -20q43 0 122 32v422z" />
    <glyph glyph-name="umacron.alt" 
d="M545 653h-409v99h409v-99zM431 570h174v-570h-164v46q-105 -61 -200 -61q-45 0 -78 13t-51 32.5t-28.5 50.5t-13.5 60t-3 68v233l-46 5v123h220v-361q0 -53 13.5 -73t54.5 -20q43 0 122 32v422z" />
    <glyph glyph-name="ubreve.alt" 
d="M548 788q-9 -80 -67 -119.5t-141 -39.5q-82 0 -140 39.5t-67 119.5h101q10 -77 106 -77t108 77h100zM431 570h174v-570h-164v46q-105 -61 -200 -61q-45 0 -78 13t-51 32.5t-28.5 50.5t-13.5 60t-3 68v233l-46 5v123h220v-361q0 -53 13.5 -73t54.5 -20q43 0 122 32v422z
" />
    <glyph glyph-name="uring.alt" 
d="M483 741q0 -58 -39.5 -90t-102.5 -32t-103 32t-40 90t39.5 90t103.5 32t103 -32t39 -90zM396 742q0 48 -55 48t-55 -48q0 -49 55 -49t55 49zM431 570h174v-570h-164v46q-105 -61 -200 -61q-45 0 -78 13t-51 32.5t-28.5 50.5t-13.5 60t-3 68v233l-46 5v123h220v-361
q0 -53 13.5 -73t54.5 -20q43 0 122 32v422z" />
    <glyph glyph-name="uhungarumlaut.alt" 
d="M705 777l-166 -146h-151l133 146h184zM244 777h185l-166 -146h-151zM431 570h174v-570h-164v46q-105 -61 -200 -61q-45 0 -78 13t-51 32.5t-28.5 50.5t-13.5 60t-3 68v233l-46 5v123h220v-361q0 -53 13.5 -73t54.5 -20q43 0 122 32v422z" />
    <glyph glyph-name="uogonek.alt" 
d="M431 570h174v-570q-80 -29 -108.5 -49.5t-28.5 -39.5q0 -35 54 -35q18 0 83 5v-81q-56 -17 -135 -17q-150 0 -150 99q0 35 31.5 68t89.5 56v40q-105 -61 -200 -61q-45 0 -78 13t-51 32.5t-28.5 50.5t-13.5 60t-3 68v233l-46 5v123h220v-361q0 -53 13.5 -73t54.5 -20
q43 0 122 32v422z" />
    <glyph glyph-name="ygrave.alt" 
d="M605 -15q0 -101 -59.5 -151t-208.5 -50q-71 0 -141.5 8.5t-95.5 14.5v104q173 -8 222 -8q69 0 89 17.5t20 64.5v19q-51 -8 -91 -8q-135 0 -204 64t-69 201l1 309h172v-309q0 -74 25.5 -104t87.5 -30q49 0 79 5v438h173v-585zM449 631h-162l-167 146h198z" />
    </font>
</defs>
</svg>
