<?xml version="1.0" standalone="no"?>
<!DOCTYPE svg PUBLIC "-//W3C//DTD SVG 1.1//EN" "http://www.w3.org/Graphics/SVG/1.1/DTD/svg11.dtd" >
<svg xmlns="http://www.w3.org/2000/svg" xmlns:xlink="http://www.w3.org/1999/xlink" version="1.1">
<metadata>
Created by FontForge 20200427 at Fri Feb  8 20:53:02 2008
 By www
Copyright (c) 2007 Monotype Imaging Inc. Soho is designed by Sebastian Lester. All rights reserved.
</metadata>
<defs>
<font id="SohoGothicPro-Regular" horiz-adv-x="457" >
  <font-face 
    font-family="Soho Gothic Pro"
    font-weight="400"
    font-stretch="normal"
    units-per-em="1000"
    panose-1="2 11 5 3 3 5 4 2 2 4"
    ascent="782"
    descent="-218"
    x-height="550"
    cap-height="743"
    bbox="-75 -297 1424 1143"
    underline-thickness="50"
    underline-position="-100"
    unicode-range="U+0020-FE6A"
  />
<missing-glyph horiz-adv-x="500" 
d="M12 0v665h475v-665h-475zM88 618l162 -243l161 243h-323zM60 575v-484l40 61l80 120l41 61zM440 575l-162 -242l162 -243v485zM411 48l-161 242l-162 -242h323z" />
    <glyph glyph-name="f_f" unicode="ff" horiz-adv-x="727" 
d="M539 0h-89v475h-236v-475h-90v475l-104 10v65h104v66q0 38 4.5 63.5t17.5 52.5t43 41t77 14q59 0 107 -14v-61q-60 4 -97 4q-41 0 -51.5 -21.5t-10.5 -78.5v-66h236v66q0 38 4.5 63.5t17.5 52.5t43 41t76 14q59 0 107 -14v-61q-60 4 -97 4q-41 0 -51.5 -21t-10.5 -79v-66
h156v-75h-156v-475z" />
    <glyph glyph-name="f_i" unicode="fi" horiz-adv-x="622" 
d="M213 0h-89v475l-105 10v65h105v66q0 40 4 66.5t17.5 52.5t43.5 39t76 13q59 0 107 -14v-61q-60 4 -97 4q-41 0 -51.5 -21t-10.5 -79v-66h326v-550h-90v475h-236v-475zM540 652h-92v122h92v-122z" />
    <glyph glyph-name="f_l" unicode="fl" horiz-adv-x="628" 
d="M213 0h-89v475l-105 10v65h105v66q0 95 41.5 133t130.5 38q46 0 159 -13h90v-774h-90v709q-80 7 -148 7q-54 0 -74 -18.5t-20 -81.5v-66h156v-75h-156v-475z" />
    <glyph glyph-name="f_f_i" unicode="ffi" horiz-adv-x="946" 
d="M863 0h-90v475h-234v-475h-89v475h-236v-475h-90v475l-104 10v65h104v66q0 39 4.5 65t17.5 52.5t43 40t77 13.5q59 0 107 -14v-61q-60 4 -97 4q-41 0 -51.5 -21t-10.5 -79v-66h236v66q0 39 4 65t17.5 52.5t43.5 40t76 13.5q59 0 107 -14v-61q-60 4 -97 4q-41 0 -51.5 -21
t-10.5 -79v-66h324v-550zM865 652h-93v122h93v-122z" />
    <glyph glyph-name="f_f_l" unicode="ffl" horiz-adv-x="952" 
d="M869 0h-90v709q-80 7 -146 7q-55 0 -74.5 -18.5t-19.5 -81.5v-66h156v-75h-156v-475h-90v475h-235v-475h-90v475l-104 10v65h104v66q0 39 4.5 65t18 52.5t43.5 40t76 13.5q59 0 107 -14v-61q-60 4 -97 4q-41 0 -51.5 -21t-10.5 -79v-66h235v66q0 95 41.5 133t131.5 38
q44 0 157 -13h90v-774z" />
    <glyph glyph-name="f_b" unicode="fb" horiz-adv-x="949" 
d="M213 0h-89v475l-105 10v65h105v66q0 92 41 131.5t127 39.5q49 0 156 -13h89v-245q67 37 149 37q107 0 157.5 -57t50.5 -177v-94q0 -131 -60 -191.5t-184 -60.5q-73 0 -202 14v709q-74 6 -146 6q-51 0 -70 -18t-19 -81v-66h156v-75h-156v-475zM538 71q65 -5 115 -5
q80 0 115.5 38.5t35.5 134.5v94q0 84 -29 119t-100 35q-85 0 -137 -29v-387z" />
    <glyph glyph-name="f_f_b" unicode="ffb" horiz-adv-x="1279" 
d="M543 0h-89v475h-240v-475h-90v475l-104 8v67h104v66q0 30 2 51t10 45.5t22.5 39.5t42 25t65.5 10q48 0 106 -14v-61q-7 0 -25.5 1.5t-36 2t-32.5 0.5q-43 0 -53.5 -20.5t-10.5 -79.5v-66h240v66q0 92 41 131.5t127 39.5q84 0 156 -13h89v-245q67 37 149 37
q107 0 157.5 -57t50.5 -177v-94q0 -131 -60 -191.5t-184 -60.5q-73 0 -202 14v709q-63 6 -146 6q-51 0 -70 -18t-19 -81v-66h156v-75h-156v-475zM1134 239v94q0 84 -29 119t-100 35q-85 0 -137 -29v-387q55 -5 115 -5q80 0 115.5 38.5t35.5 134.5z" />
    <glyph glyph-name="f_h" unicode="fh" horiz-adv-x="969" 
d="M894 0h-90v348q0 80 -23 109t-81 29q-81 0 -161 -39v-447h-89v709q-88 7 -142 7q-55 0 -74.5 -18.5t-19.5 -81.5v-66h156v-75h-156v-475h-90v475l-104 10v65h104v66q0 94 42.5 132.5t132.5 38.5q63 0 151 -13h89v-255q87 45 179 45q90 0 133 -52.5t43 -160.5v-351z" />
    <glyph glyph-name="f_f_h" unicode="ffh" horiz-adv-x="1294" 
d="M1219 0h-90v348q0 80 -23 109t-81 29q-82 0 -160 -39v-447h-90v709q-87 7 -142 7t-74.5 -18.5t-19.5 -81.5v-66h156v-75h-156v-475h-89v475h-236v-475h-90v475l-104 10v65h104v66q0 30 2 51t10 45.5t22.5 39.5t42 25t65.5 10q59 0 107 -14v-61q-60 4 -97 4
q-41 0 -51.5 -21t-10.5 -79v-66h236v66q0 94 42 132.5t132 38.5q63 0 151 -13h90v-255q85 45 178 45q90 0 133 -52.5t43 -160.5v-351z" />
    <glyph glyph-name="f_j" unicode="fj" horiz-adv-x="622" 
d="M214 0h-90v475l-104 10v65h104v66q0 38 4.5 64t18 52.5t43.5 40.5t76 14q59 0 107 -14v-61q-60 4 -97 4q-41 0 -51.5 -21t-10.5 -79v-66h325v-617q0 -85 -30.5 -120.5t-104.5 -35.5q-40 0 -71 7v65q26 -2 59 -2q36 0 46.5 17.5t10.5 68.5v542h-235v-475zM540 652h-93v122
h93v-122z" />
    <glyph glyph-name="f_f_j" unicode="ffj" horiz-adv-x="947" 
d="M539 0h-90v475h-236v-475h-89v475l-105 10v65h105v66q0 38 4.5 64t17.5 52.5t43 40.5t76 14q59 0 107 -14v-61q-60 4 -97 4q-40 0 -51 -22t-11 -78v-66h236v66q0 38 4.5 63.5t17.5 52.5t43 41t77 14q58 0 106 -14v-61q-60 4 -96 4q-41 0 -51.5 -21t-10.5 -79v-66h325
v-617q0 -85 -30.5 -120.5t-104.5 -35.5q-43 0 -71 7v65q24 -2 59 -2t46 17.5t11 68.5v542h-235v-475zM865 652h-93v122h93v-122z" />
    <glyph glyph-name="f_k" unicode="fk" horiz-adv-x="895" 
d="M880 0h-119l-222 273v-273h-89v709q-88 7 -142 7q-55 0 -74.5 -18.5t-19.5 -81.5v-66h156v-75h-156v-475h-90v475l-104 10v65h104v66q0 94 42.5 132.5t132.5 38.5q63 0 151 -13h89v-472l221 248h116l-238 -261z" />
    <glyph glyph-name="f_f_k" unicode="ffk" horiz-adv-x="1220" 
d="M1205 0h-119l-222 273v-273h-90v709q-88 7 -141 7q-55 0 -74.5 -18.5t-19.5 -81.5v-66h156v-75h-156v-475h-90v475h-235v-475h-90v475l-104 10v65h104v66q0 38 4.5 63.5t17.5 52.5t43 41t77 14q59 0 107 -14v-61q-60 4 -97 4q-41 0 -51.5 -21t-10.5 -79v-66h235v66
q0 94 42.5 132.5t131.5 38.5q63 0 151 -13h90v-472l221 248h116l-238 -261z" />
    <glyph glyph-name=".notdef" horiz-adv-x="500" 
d="M12 0v665h475v-665h-475zM88 618l162 -243l161 243h-323zM60 575v-484l40 61l80 120l41 61zM440 575l-162 -242l162 -243v485zM411 48l-161 242l-162 -242h323z" />
    <glyph glyph-name=".null" horiz-adv-x="0" 
 />
    <glyph glyph-name="nonmarkingreturn" horiz-adv-x="333" 
 />
    <glyph glyph-name="space" unicode=" " horiz-adv-x="191" 
 />
    <glyph glyph-name="exclam" unicode="!" horiz-adv-x="251" 
d="M171 0h-91v135h91v-135zM174 774l-9 -581h-78l-10 581h97z" />
    <glyph glyph-name="quotedbl" unicode="&#x22;" horiz-adv-x="338" 
d="M20 519l12 240h91l-36 -240h-67zM318 759l-36 -240h-67l12 240h91z" />
    <glyph glyph-name="numbersign" unicode="#" horiz-adv-x="741" 
d="M656 197h-144l-22 -197h-80l21 197h-168l-21 -197h-81l22 197h-99v77h107l20 187h-127v76h136l23 206h80l-22 -206h167l24 206h80l-22 -206h106v-76h-115l-20 -187h135v-77zM460 461h-168l-20 -187h168z" />
    <glyph glyph-name="dollar" unicode="$" horiz-adv-x="620" 
d="M264 -120v107q-114 4 -174 20v72q110 -13 212 -13q77 0 114.5 29t37.5 93q0 45 -21.5 74t-79.5 55l-127 57q-78 35 -115.5 81t-37.5 120q0 160 191 178v102h87v-101q105 -3 170 -19v-73q-117 13 -202 13q-78 0 -115.5 -22.5t-37.5 -77.5q0 -44 21 -71t79 -53l128 -56
q80 -36 117 -83.5t37 -123.5q0 -179 -197 -199v-109h-87z" />
    <glyph glyph-name="percent" unicode="%" horiz-adv-x="1068" 
d="M1009 194q0 -100 -45.5 -152t-130.5 -52t-130.5 52t-45.5 152v57q0 100 45.5 151.5t130.5 51.5t130.5 -51.5t45.5 -151.5v-57zM929 194v57q0 75 -25.5 105t-70.5 30t-70.5 -30t-25.5 -105v-57q0 -76 25.5 -106t70.5 -30t70.5 30t25.5 106zM814 743l-474 -743h-90l474 743
h90zM409 494q0 -205 -175 -205q-92 0 -134 55.5t-42 149.5v55q0 205 176 205q175 0 175 -205v-55zM329 494v55q0 75 -22.5 106t-72.5 31q-49 0 -72.5 -32t-23.5 -105v-55q0 -75 23 -106t73 -31t72.5 31t22.5 106z" />
    <glyph glyph-name="ampersand" unicode="&#x26;" horiz-adv-x="739" 
d="M591 0l-61 65q-82 -79 -228 -79q-242 0 -242 206q0 136 151 221q-36 39 -52 59t-31.5 54t-15.5 70q0 83 53 121t164 38q101 0 182 -16v-72q-81 8 -182 8q-69 0 -96.5 -16.5t-27.5 -61.5q0 -31 19.5 -61.5t73.5 -88.5l232 -251q25 66 30 169l-61 7v69h195v-69l-58 -7
q-7 -143 -52 -228l112 -121v-16h-105zM301 61q119 0 180 58l-219 239q-54 -32 -81 -69t-27 -97q0 -131 147 -131z" />
    <glyph glyph-name="quotesingle" unicode="'" horiz-adv-x="143" 
d="M123 759l-36 -240h-67l12 240h91z" />
    <glyph glyph-name="parenleft" unicode="(" horiz-adv-x="356" 
d="M317 -207h-87q-65 79 -112.5 200t-47.5 271q0 156 47.5 278t112.5 201h87q-77 -104 -117 -217t-40 -262q0 -144 40 -255.5t117 -215.5z" />
    <glyph glyph-name="parenright" unicode=")" horiz-adv-x="356" 
d="M285 264q0 -151 -47.5 -272t-111.5 -199h-88q77 104 117.5 216.5t40.5 261.5q0 145 -40.5 257t-117.5 215h88q65 -78 112 -200.5t47 -278.5z" />
    <glyph glyph-name="asterisk" unicode="*" horiz-adv-x="532" 
d="M464 601l-70 -23q-38 -12 -74 -19q23 -22 49 -57l43 -59l-63 -46l-43 59q-20 26 -41 64q-10 -19 -40 -63l-42 -60l-64 46l43 60q20 29 48 57q-33 7 -72 19l-70 22l24 75l70 -23q40 -13 70 -27q-5 42 -5 74v74h78v-74q0 -37 -6 -76q16 8 71 28l70 24z" />
    <glyph glyph-name="plus" unicode="+" horiz-adv-x="702" 
d="M601 354h-213v-215h-73v215h-215v73h215v215h73v-215h213v-73z" />
    <glyph glyph-name="comma" unicode="," horiz-adv-x="277" 
d="M223 138l-116 -227h-82l93 227h105z" />
    <glyph glyph-name="hyphen" unicode="-" horiz-adv-x="396" 
d="M321 255h-247v75h247v-75z" />
    <glyph glyph-name="period" unicode="." horiz-adv-x="252" 
d="M171 0h-90v138h90v-138z" />
    <glyph glyph-name="slash" unicode="/" horiz-adv-x="411" 
d="M401 743l-304 -743h-87l305 743h86z" />
    <glyph glyph-name="zero" unicode="0" horiz-adv-x="638" 
d="M580 299q0 -154 -67.5 -233.5t-193.5 -79.5t-193.5 79.5t-67.5 233.5v143q0 154 67.5 233.5t193.5 79.5t193.5 -79.5t67.5 -233.5v-143zM488 299v143q0 234 -169 234t-169 -234v-143q0 -234 169 -234t169 234z" />
    <glyph glyph-name="one" unicode="1" horiz-adv-x="559" 
d="M498 0h-436v75l173 6v574l-174 -56v80l198 70h67v-668l172 -6v-75z" />
    <glyph glyph-name="two" unicode="2" horiz-adv-x="590" 
d="M524 0h-460v94q0 81 24 135t69.5 91.5t133.5 85.5q91 49 120.5 83.5t29.5 85.5q0 57 -38 79t-131 22q-99 0 -191 -15v71q100 23 196 23q131 0 193.5 -43t62.5 -137q0 -72 -41 -125.5t-150 -111.5q-117 -63 -152.5 -108.5t-35.5 -134.5v-14h370v-81z" />
    <glyph glyph-name="three" unicode="3" horiz-adv-x="597" 
d="M538 201q0 -117 -65.5 -166t-194.5 -49q-95 0 -203 26v69q115 -16 202 -16q90 0 129.5 28t39.5 108v25q0 59 -24 89.5t-101 30.5h-215v77h215q76 0 100.5 32t24.5 92q0 76 -35.5 102.5t-134.5 26.5q-81 0 -198 -14v71q95 22 200 22q136 0 198 -46t62 -162
q0 -118 -90 -162q90 -45 90 -159v-25z" />
    <glyph glyph-name="four" unicode="4" horiz-adv-x="653" 
d="M604 196h-113v-196h-92v196h-352v94l339 453h105v-467h113v-80zM399 276v343l-260 -343h260z" />
    <glyph glyph-name="five" unicode="5" horiz-adv-x="585" 
d="M527 207q0 -117 -67.5 -169t-203.5 -52q-95 0 -205 24v73q148 -18 203 -18q100 0 141 31.5t41 110.5v29q0 76 -37 105t-145 29h-188l32 373h402v-82h-324l-19 -212h101q142 0 205.5 -50t63.5 -163v-29z" />
    <glyph glyph-name="six" unicode="6" horiz-adv-x="631" 
d="M572 221q0 -58 -18 -102t-44 -68.5t-61.5 -40t-65 -20t-60.5 -4.5q-46 0 -79.5 5t-70.5 22.5t-60.5 48.5t-39 86.5t-15.5 132.5v193q0 143 63 212t215 69q100 0 203 -22v-72q-117 15 -201 15q-63 0 -102 -13.5t-57 -43.5t-23.5 -61.5t-5.5 -83.5v-35q80 23 174 23
q42 0 74.5 -4t66.5 -16.5t56 -33.5t36.5 -58t14.5 -87v-42zM480 221v38q0 78 -38 103.5t-122 25.5q-90 0 -170 -19v-93q0 -122 43 -166.5t130 -44.5q68 0 112.5 38.5t44.5 117.5z" />
    <glyph glyph-name="seven" unicode="7" horiz-adv-x="576" 
d="M533 645l-324 -645h-103l341 661h-395v82h481v-98z" />
    <glyph glyph-name="eight" unicode="8" horiz-adv-x="654" 
d="M591 214q0 -45 -8.5 -81t-21.5 -59.5t-34.5 -40.5t-42 -26t-51 -14t-53 -6t-55.5 -1q-47 0 -77 2.5t-69 15t-61.5 35.5t-39 67.5t-16.5 107.5q0 122 81 172q-78 47 -78 156q0 53 15.5 92t39.5 62t60 36.5t70.5 18t77.5 4.5q53 0 94.5 -8t81.5 -29.5t62 -66t22 -109.5
q0 -109 -78 -156q81 -50 81 -172zM499 214q-1 72 -23.5 102.5t-81.5 30.5h-135q-59 0 -82 -31t-23 -102q0 -49 12 -80t37.5 -45.5t53 -19t71.5 -4.5q43 0 70 4.5t52 19t37 45.5t12 80zM497 542q0 81 -43 107.5t-129 26.5q-84 0 -126.5 -26.5t-42.5 -107.5q0 -58 23 -87.5
t80 -29.5h135q57 0 80 29.5t23 87.5z" />
    <glyph glyph-name="nine" unicode="9" horiz-adv-x="631" 
d="M572 267q0 -143 -63 -212t-215 -69q-100 0 -203 22v72q117 -15 201 -15q63 0 102 13.5t57 43.5t23.5 61.5t5.5 83.5v35q-80 -23 -174 -23q-42 0 -74.5 4t-66.5 16.5t-56 33.5t-36.5 58t-14.5 87v42q0 58 18 102t44 68.5t61.5 40t65 20t60.5 4.5q46 0 79.5 -5t70.5 -22.5
t60.5 -48.5t39 -86.5t15.5 -132.5v-193zM480 372v93q0 122 -43 166.5t-130 44.5q-68 0 -112.5 -38.5t-44.5 -117.5v-38q0 -78 38 -103.5t122 -25.5q90 0 170 19z" />
    <glyph glyph-name="colon" unicode=":" horiz-adv-x="258" 
d="M174 0h-91v138h91v-138zM174 412h-91v138h91v-138z" />
    <glyph glyph-name="semicolon" unicode=";" horiz-adv-x="268" 
d="M196 138l-118 -227h-79l93 227h104zM184 412h-91v138h91v-138z" />
    <glyph glyph-name="less" unicode="&#x3c;" horiz-adv-x="702" 
d="M557 139h-123l-290 252l290 251h123l-291 -251z" />
    <glyph glyph-name="equal" unicode="=" horiz-adv-x="702" 
d="M574 318v-74h-447v74h447zM574 464h-447v75h447v-75z" />
    <glyph glyph-name="greater" unicode="&#x3e;" horiz-adv-x="702" 
d="M557 391l-291 -252h-122l290 252l-290 251h122z" />
    <glyph glyph-name="question" unicode="?" horiz-adv-x="472" 
d="M207 0h-90v138h90v-138zM30 696v68q87 23 165 23q104 0 156.5 -40t52.5 -131q0 -49 -22.5 -92.5t-81.5 -102.5q-64 -65 -79.5 -97.5t-15.5 -88.5v-42h-88v42q0 70 18 115t81 106q57 55 76 88t19 72q0 54 -29.5 73t-94.5 19q-49 0 -157 -12z" />
    <glyph glyph-name="at" unicode="@" horiz-adv-x="834" 
d="M779 368q0 -71 -18 -126t-58 -98.5t-110.5 -66.5t-168.5 -23q-104 0 -151.5 36.5t-47.5 113.5q0 84 13 140.5t40 87t60.5 43t81.5 12.5q83 0 163 -20l-33 -329q158 36 158 231q0 116 -63 171.5t-193 55.5q-139 0 -214.5 -67.5t-102.5 -226.5q-12 -70 -12 -138
q0 -101 56.5 -158t195.5 -57q106 0 178 9v-50q-95 -15 -177 -15q-322 0 -322 271q0 75 12 145q30 183 123.5 265t262.5 82q163 0 245 -74.5t82 -213.5zM491 409q-25 4 -70 4q-29 0 -47 -6.5t-34.5 -27t-24 -64t-7.5 -111.5q0 -46 25.5 -63.5t88.5 -17.5q26 0 42 1z" />
    <glyph glyph-name="A" unicode="A" horiz-adv-x="663" 
d="M638 0h-98l-77 243h-266l-79 -243h-93l243 743h127zM435 327l-70 217q-18 55 -30 122h-10q-16 -80 -30 -122l-71 -217h211z" />
    <glyph glyph-name="B" unicode="B" horiz-adv-x="639" 
d="M584 209q0 -52 -16 -90t-41.5 -61t-67 -36t-84 -17.5t-99.5 -4.5h-191v743h196q75 0 124.5 -7.5t92 -28t62.5 -61t20 -103.5q0 -51 -25.5 -95t-75.5 -65q105 -40 105 -174zM491 209q0 67 -36.5 102t-128.5 35h-149v-265h99q114 0 164.5 25t50.5 103zM487 543
q0 33 -9.5 55.5t-24.5 34.5t-44 18.5t-55.5 8t-72.5 1.5h-104v-236h149q91 0 126 30t35 88z" />
    <glyph glyph-name="C" unicode="C" horiz-adv-x="557" 
d="M527 3q-102 -17 -172 -17q-54 0 -97 8.5t-82 30.5t-65 58t-41 93.5t-15 133.5v123q0 95 22 160t65 99.5t94 48.5t119 14q70 0 172 -17v-75q-115 10 -172 10q-109 0 -158.5 -53.5t-49.5 -186.5v-123q0 -133 49.5 -187t158.5 -54q69 0 172 9v-75z" />
    <glyph glyph-name="D" unicode="D" horiz-adv-x="674" 
d="M619 312q0 -312 -326 -312h-208v743h208q167 0 246.5 -81.5t79.5 -228.5v-121zM526 312v121q0 123 -58.5 175.5t-182.5 52.5h-108v-580h108q123 0 182 53.5t59 177.5z" />
    <glyph glyph-name="E" unicode="E" horiz-adv-x="580" 
d="M525 0h-440v743h440v-82h-348v-234h327v-83h-327v-263h348v-81z" />
    <glyph glyph-name="F" unicode="F" horiz-adv-x="570" 
d="M525 661h-348v-234h327v-83h-327v-344h-92v743h440v-82z" />
    <glyph glyph-name="G" unicode="G" horiz-adv-x="634" 
d="M569 7q-105 -21 -219 -21q-295 0 -295 320v131q0 318 296 318q114 0 218 -19v-74q-121 11 -205 11q-52 0 -87.5 -8.5t-67 -33t-46.5 -72.5t-15 -122v-131q0 -135 52 -185.5t162 -50.5q70 0 115 3v313h92v-379z" />
    <glyph glyph-name="H" unicode="H" horiz-adv-x="726" 
d="M641 0h-92v351h-372v-351h-92v743h92v-309h372v309h92v-743z" />
    <glyph glyph-name="I" unicode="I" horiz-adv-x="262" 
d="M177 0h-92v743h92v-743z" />
    <glyph glyph-name="J" unicode="J" horiz-adv-x="261" 
d="M176 -60q0 -84 -34 -121.5t-119 -37.5q-50 0 -74 8v69h16q84 0 102 11.5t18 70.5v803h91v-803z" />
    <glyph glyph-name="K" unicode="K" horiz-adv-x="634" 
d="M619 0h-126l-311 358v-358h-92v743h92v-349l319 349h118l-335 -365z" />
    <glyph glyph-name="L" unicode="L" horiz-adv-x="542" 
d="M517 0h-432v743h92v-662h340v-81z" />
    <glyph glyph-name="M" unicode="M" horiz-adv-x="813" 
d="M728 0h-91v483q0 53 5 138h-2q-7 -17 -53 -114l-125 -267h-113l-122 267q-17 38 -53 114h-2q4 -102 4 -138v-483h-91v743h121l154 -335q4 -8 44 -100h2q5 12 46 102l156 333h120v-743z" />
    <glyph glyph-name="N" unicode="N" horiz-adv-x="706" 
d="M621 0h-131l-262 533q-50 102 -60 126h-2q5 -82 5 -155v-504h-86v743h132l259 -519q29 -57 60 -127h2q-5 74 -5 163v483h88v-743z" />
    <glyph glyph-name="O" unicode="O" horiz-adv-x="684" 
d="M629 318q0 -159 -74.5 -245.5t-212.5 -86.5t-212.5 86.5t-74.5 245.5v106q0 159 74 245t213 86t213 -86t74 -245v-106zM536 318v106q0 249 -194 249t-194 -249v-106q0 -250 194 -250t194 250z" />
    <glyph glyph-name="P" unicode="P" horiz-adv-x="605" 
d="M570 511q0 -64 -22.5 -107.5t-51.5 -66t-90.5 -34t-103.5 -13t-125 -1.5v-289h-92v743q24 0 71.5 0.5t70.5 0.5q47 0 78.5 -1t71 -6t64.5 -14.5t52 -26.5t42 -41.5t25 -60.5t10 -83zM477 511q0 31 -6 54t-14.5 39.5t-27 27t-34.5 16.5t-47 9t-55 3.5t-67 0.5h-49v-291h30
q54 0 83 1t65.5 5t54.5 13t36 24.5t24.5 39.5t6.5 58z" />
    <glyph glyph-name="Q" unicode="Q" horiz-adv-x="684" 
d="M629 318q0 -145 -62.5 -230t-179.5 -99v-55q0 -31 12 -40t55 -9h85v-63q-47 -10 -111 -10q-66 0 -98.5 25t-32.5 97v55q-117 14 -179.5 98.5t-62.5 230.5v106q0 159 74 245t213 86t213 -86t74 -245v-106zM536 318v106q0 249 -194 249t-194 -249v-106q0 -250 194 -250
t194 250z" />
    <glyph glyph-name="R" unicode="R" horiz-adv-x="637" 
d="M617 0h-109l-175 290q-20 -1 -70 -1h-86v-289h-92v743h175q56 0 99 -5t84 -20t68 -39.5t43 -65.5t16 -97q0 -159 -139 -207zM477 516q0 88 -50 116.5t-167 28.5h-83v-291h86q114 0 164 31t50 115z" />
    <glyph glyph-name="S" unicode="S" horiz-adv-x="585" 
d="M530 188q0 -98 -62 -150t-184 -52q-131 0 -212 21v72q110 -13 212 -13q77 0 114.5 29t37.5 93q0 45 -21.5 74t-79.5 55l-127 57q-78 35 -115.5 81t-37.5 120q0 180 243 180q128 0 205 -20v-73q-117 13 -202 13q-78 0 -115.5 -22.5t-37.5 -77.5q0 -44 21 -71t79 -53
l128 -56q80 -36 117 -83.5t37 -123.5z" />
    <glyph glyph-name="T" unicode="T" horiz-adv-x="610" 
d="M580 661h-229v-661h-92v661h-229v82h550v-82z" />
    <glyph glyph-name="U" unicode="U" horiz-adv-x="699" 
d="M619 309q0 -323 -269 -323q-270 0 -270 323v434h92v-424q0 -137 39 -193.5t139 -56.5t139 57t39 193v424h91v-434z" />
    <glyph glyph-name="V" unicode="V" horiz-adv-x="673" 
d="M643 743l-245 -743h-123l-245 743h98l176 -545q2 -4 34 -128h2q22 94 33 128l176 545h94z" />
    <glyph glyph-name="W" unicode="W" horiz-adv-x="900" 
d="M855 743l-134 -743h-147l-101 460q-3 16 -10 47.5t-11 47.5h-3q-3 -16 -10 -47.5t-11 -47.5l-100 -460h-149l-134 743h98l87 -522q4 -24 12 -74t12 -74h5q5 25 16 74t16 73l89 413h144l90 -416q5 -24 15.5 -72t15.5 -72h5q9 65 23 148l88 522h94z" />
    <glyph glyph-name="X" unicode="X" horiz-adv-x="672" 
d="M642 0h-112l-202 306l-196 -306h-102l247 378l-245 365h109l200 -300l194 300h102l-247 -369z" />
    <glyph glyph-name="Y" unicode="Y" horiz-adv-x="627" 
d="M607 743l-248 -449v-294h-91v294l-248 449h101l135 -245q40 -73 57 -118h6q9 23 60 118l134 245h94z" />
    <glyph glyph-name="Z" unicode="Z" horiz-adv-x="624" 
d="M569 0h-514v102l401 559h-386v82h485v-101l-400 -561h414v-81z" />
    <glyph glyph-name="bracketleft" unicode="[" horiz-adv-x="404" 
d="M346 -208h-232v951h232v-77h-143v-799h143v-75z" />
    <glyph glyph-name="backslash" unicode="\" horiz-adv-x="442" 
d="M416 0h-87l-304 743h86z" />
    <glyph glyph-name="bracketright" unicode="]" horiz-adv-x="404" 
d="M289 -208h-232v75h143v800h-143v76h232v-951z" />
    <glyph glyph-name="asciicircum" unicode="^" horiz-adv-x="702" 
d="M591 415h-98l-143 286l-142 -286h-99l165 331h152z" />
    <glyph glyph-name="underscore" unicode="_" horiz-adv-x="574" 
d="M579 -106h-585v59h585v-59z" />
    <glyph glyph-name="grave" unicode="`" 
d="M294 616h-90l-150 154h109z" />
    <glyph glyph-name="a" unicode="a" horiz-adv-x="545" 
d="M475 0h-86v37q-73 -51 -175 -51q-164 0 -164 156v20q0 101 62 135.5t191 34.5h82v40q0 72 -23.5 94t-105.5 22q-67 0 -170 -12v64q18 7 69.5 15.5t107.5 8.5q67 0 110 -11.5t65 -38t29.5 -59t7.5 -83.5v-372zM385 100v164h-82q-92 0 -127.5 -19.5t-35.5 -82.5v-27
q0 -44 24 -61.5t68 -17.5q43 0 86.5 14.5t66.5 29.5z" />
    <glyph glyph-name="b" unicode="b" horiz-adv-x="578" 
d="M523 238q0 -131 -60 -191.5t-184 -60.5q-73 0 -202 14v774h90v-245q67 37 148 37q106 0 157 -57.5t51 -176.5v-94zM433 239v94q0 83 -29.5 118.5t-99.5 35.5q-86 0 -137 -29v-387q63 -5 114 -5q80 0 116 38.5t36 134.5z" />
    <glyph glyph-name="c" unicode="c" horiz-adv-x="477" 
d="M432 5q-60 -19 -157 -19q-111 0 -165.5 64t-54.5 184v83q0 247 220 247q97 0 157 -19v-68q-96 10 -144 10q-72 0 -107.5 -36.5t-35.5 -133.5v-83q0 -97 35.5 -134t107.5 -37q48 0 144 10v-68z" />
    <glyph glyph-name="d" unicode="d" horiz-adv-x="578" 
d="M501 0h-87v28q-71 -42 -154 -42q-205 0 -205 235v95q0 138 60 193t167 55q61 0 129 -14v224h90v-774zM411 97v378q-73 13 -123 13q-74 0 -108.5 -34.5t-34.5 -137.5v-95q0 -82 31.5 -120t100.5 -38q64 0 134 34z" />
    <glyph glyph-name="e" unicode="e" horiz-adv-x="579" 
d="M524 242h-379v-11q0 -41 5 -67t21 -51t50.5 -37t89.5 -12q100 0 192 16v-72q-84 -22 -196 -22q-141 0 -196.5 63t-55.5 202v42q0 131 58.5 201t174.5 70q236 0 236 -282v-40zM431 316v10q0 24 -2.5 43t-11 42t-23 38.5t-41.5 26t-64 10.5q-143 0 -143 -160v-10h285z" />
    <glyph glyph-name="f" unicode="f" horiz-adv-x="402" 
d="M370 475h-156v-475h-90v475l-104 8v67h104v66q0 38 4.5 63.5t17.5 52.5t43 41t77 14q56 0 106 -14v-61q-7 0 -25.5 1.5t-36 2t-32.5 0.5q-43 0 -53.5 -20.5t-10.5 -79.5v-66h156v-75z" />
    <glyph glyph-name="g" unicode="g" horiz-adv-x="578" 
d="M501 -31q0 -95 -44.5 -143.5t-167.5 -48.5q-55 0 -118 7.5t-84 12.5v65q120 -8 202 -8q76 0 99 26t23 89v28q-60 -10 -111 -10q-122 0 -183.5 58t-61.5 196v69q0 129 58.5 191.5t189.5 62.5q88 0 198 -14v-581zM411 72v409q-38 7 -108 7q-90 0 -124 -42t-34 -136v-69
q0 -102 35 -140t121 -38q68 0 110 9z" />
    <glyph glyph-name="h" unicode="h" horiz-adv-x="596" 
d="M521 0h-90v348q0 80 -23 109t-81 29q-81 0 -161 -39v-447h-89v774h89v-255q87 45 179 45q90 0 133 -52.5t43 -160.5v-351z" />
    <glyph glyph-name="i" unicode="i" horiz-adv-x="256" 
d="M173 0h-90v550h90v-550zM174 652h-91v122h91v-122z" />
    <glyph glyph-name="j" unicode="j" horiz-adv-x="256" 
d="M173 -67q0 -88 -30.5 -122t-108.5 -34q-45 0 -67 5v66q5 0 25.5 -0.5t33.5 -0.5q36 0 46.5 17.5t10.5 68.5v617h90v-617zM174 652h-91v122h91v-122z" />
    <glyph glyph-name="k" unicode="k" horiz-adv-x="522" 
d="M507 0h-119l-222 273v-273h-89v774h89v-472l221 248h116l-238 -261z" />
    <glyph glyph-name="l" unicode="l" horiz-adv-x="255" 
d="M172 0h-89v774h89v-774z" />
    <glyph glyph-name="m" unicode="m" horiz-adv-x="856" 
d="M781 0h-90v365q0 30 -0.5 43.5t-4.5 32t-12.5 26.5t-24.5 14t-40 6q-60 0 -139 -46q4 -26 4 -76v-365h-90v365q0 30 -0.5 43.5t-4 32t-11.5 26.5t-22.5 14t-36.5 6q-60 0 -143 -48v-439h-89v550h89v-43q78 57 164 57q87 0 121 -59q90 59 170 59q46 0 78 -13.5t47.5 -31
t24 -49t9.5 -51t1 -54.5v-365z" />
    <glyph glyph-name="n" unicode="n" horiz-adv-x="596" 
d="M521 0h-90v351q0 78 -18.5 107t-73.5 29q-61 0 -173 -49v-438h-89v550h89v-43q111 57 183 57q103 0 137.5 -51t34.5 -162v-351z" />
    <glyph glyph-name="o" unicode="o" horiz-adv-x="579" 
d="M524 235q0 -121 -59.5 -185t-175.5 -64q-115 0 -174.5 64t-59.5 185v80q0 121 59.5 185t174.5 64q116 0 175.5 -64t59.5 -185v-80zM434 235v80q0 89 -34.5 129.5t-110.5 40.5q-75 0 -109.5 -40.5t-34.5 -129.5v-80q0 -89 34.5 -129.5t109.5 -40.5q76 0 110.5 40.5
t34.5 129.5z" />
    <glyph glyph-name="p" unicode="p" horiz-adv-x="577" 
d="M522 254q0 -77 -17.5 -131t-50 -83t-72.5 -41.5t-93 -12.5q-63 0 -123 16v-212h-89v760h86v-37q73 51 160 51q98 0 148.5 -60.5t50.5 -195.5v-54zM433 254v54q0 98 -30 137.5t-94 39.5q-60 0 -143 -41v-367q75 -15 123 -15q73 0 108.5 39.5t35.5 152.5z" />
    <glyph glyph-name="q" unicode="q" horiz-adv-x="578" 
d="M501 -210h-89v235q-83 -39 -167 -39q-99 0 -144.5 59.5t-45.5 196.5v55q0 152 59 209.5t190 57.5q84 0 197 -15v-759zM411 98v382q-65 5 -109 5q-43 0 -69.5 -6t-48 -25.5t-30.5 -57.5t-9 -99v-55q0 -100 24.5 -138.5t90.5 -38.5q70 0 151 33z" />
    <glyph glyph-name="r" unicode="r" horiz-adv-x="376" 
d="M361 484q-54 0 -108.5 -13.5t-86.5 -33.5v-437h-89v550h88v-44q74 58 196 58v-80z" />
    <glyph glyph-name="s" unicode="s" horiz-adv-x="482" 
d="M442 139q0 -153 -205 -153q-51 0 -106 8t-74 14v69q4 0 41.5 -4.5t72 -7t63.5 -2.5q67 0 92.5 18t25.5 56q0 37 -20 55.5t-91 48.5l-40 17q-81 34 -116 72.5t-35 96.5q0 70 48 103.5t151 33.5q109 0 166 -20v-67q-97 10 -162 10q-63 0 -88 -12t-25 -48q0 -32 19 -51
t77 -44l40 -17q98 -44 132 -79t34 -97z" />
    <glyph glyph-name="t" unicode="t" horiz-adv-x="403" 
d="M373 1q-45 -15 -101 -15q-75 0 -105.5 31t-30.5 109v349l-111 8v67h111v143h90v-143h147v-75h-147v-345q0 -47 9 -59.5t47 -12.5q48 0 91 5v-62z" />
    <glyph glyph-name="u" unicode="u" horiz-adv-x="596" 
d="M519 0h-90v43q-112 -57 -191 -57q-94 0 -128.5 55.5t-34.5 157.5v351h89v-351q0 -78 18.5 -107t74.5 -29q60 0 172 49v438h90v-550z" />
    <glyph glyph-name="v" unicode="v" horiz-adv-x="536" 
d="M513 550l-183 -550h-124l-183 550h97l105 -338q10 -32 26 -86.5t19 -64.5q25 95 42 151l104 338h97z" />
    <glyph glyph-name="w" unicode="w" horiz-adv-x="831" 
d="M801 550l-124 -550h-127l-102 330q-21 69 -30 111h-4q-9 -42 -30 -111l-102 -330h-127l-125 550h92l73 -340q19 -89 22 -142h5q6 22 18.5 70t19.5 71l91 296h130l91 -296q7 -23 19.5 -71t18.5 -70h5q3 53 22 142l73 340h91z" />
    <glyph glyph-name="x" unicode="x" horiz-adv-x="534" 
d="M23 0l195 280l-184 270h101l136 -200l133 200h100l-186 -269l193 -281h-101l-144 210l-142 -210h-101z" />
    <glyph glyph-name="y" unicode="y" horiz-adv-x="547" 
d="M524 550l-209 -599q-16 -45 -29 -72.5t-34 -53t-51 -37t-71 -11.5q-60 0 -107 10v69q57 -4 104 -4q38 0 56.5 21.5t42.5 86.5l15 40l-213 550h99l112 -309q12 -35 46 -146q17 73 42 147l101 308h96z" />
    <glyph glyph-name="z" unicode="z" horiz-adv-x="488" 
d="M443 0h-403v101l306 374h-293v75h389v-93l-311 -383h312v-74z" />
    <glyph glyph-name="braceleft" unicode="{" horiz-adv-x="412" 
d="M352 -210h-64q-100 0 -134.5 33.5t-34.5 105.5v184q0 49 -13 72t-52 50v63q39 27 52 50t13 71v185q0 73 34 106t135 33h63v-76h-63q-53 0 -66.5 -11.5t-13.5 -51.5v-185q0 -57 -16 -92t-54 -61q37 -27 53.5 -62t16.5 -91v-184q0 -41 13.5 -52.5t66.5 -11.5h64v-75z" />
    <glyph glyph-name="bar" unicode="|" horiz-adv-x="316" 
d="M202 -210h-89v953h89v-953z" />
    <glyph glyph-name="braceright" unicode="}" horiz-adv-x="412" 
d="M358 235q-39 -27 -52 -50t-13 -72v-184q0 -72 -34.5 -105.5t-134.5 -33.5h-64v75h64q53 0 66.5 11.5t13.5 52.5v184q0 56 16.5 91t53.5 62q-38 26 -54 61t-16 92v185q0 40 -13.5 51.5t-66.5 11.5h-63v76h63q101 0 135 -33t34 -106v-185q0 -48 13 -71t52 -50v-63z" />
    <glyph glyph-name="asciitilde" unicode="~" horiz-adv-x="702" 
d="M584 479q0 -66 -24.5 -102t-86.5 -36q-67 0 -115 40l-63 51q-15 13 -22.5 18.5t-17.5 9.5t-22 4q-26 0 -35 -16t-9 -53v-45h-72v45q0 139 117 139q29 0 50.5 -10.5t52.5 -35.5l60 -48q37 -29 72 -29q27 0 35 16.5t8 51.5v47h72v-47z" />
    <glyph glyph-name="uni00A0" unicode="&#xa0;" horiz-adv-x="191" 
 />
    <glyph glyph-name="exclamdown" unicode="&#xa1;" horiz-adv-x="251" 
d="M174 -225h-97l10 581h78zM171 549v-135h-91v135h91z" />
    <glyph glyph-name="cent" unicode="&#xa2;" horiz-adv-x="496" 
d="M437 545v-68q-96 10 -144 10q-72 0 -107.5 -36.5t-35.5 -133.5v-83q0 -97 35.5 -134t107.5 -37q48 0 144 10v-68q-46 -14 -120 -18v-107h-82v109q-175 25 -175 245v83q0 219 175 244v107h82v-105q74 -4 120 -18z" />
    <glyph glyph-name="sterling" unicode="&#xa3;" horiz-adv-x="624" 
d="M558 735v-72q-108 12 -184 12q-90 0 -114.5 -35t-24.5 -139v-76h249v-76h-249v-153q0 -66 -36 -118h359v-78h-460v70q45 48 45 126v153h-78v76h78v76q0 134 46.5 194t178.5 60q110 0 190 -20z" />
    <glyph glyph-name="currency" unicode="&#xa4;" horiz-adv-x="652" 
d="M576 192l-63 -63l-76 75q-52 -33 -111 -33q-63 0 -112 33l-76 -74l-62 62l75 75q-33 52 -33 112q0 63 33 112l-75 75l62 62l76 -74q49 32 112 32t112 -32l75 73l63 -61l-75 -75q33 -55 33 -112q0 -61 -33 -112zM459 379q0 56 -39.5 96t-93.5 40t-93.5 -40t-39.5 -96
t39.5 -96t93.5 -40t93.5 40t39.5 96z" />
    <glyph glyph-name="yen" unicode="&#xa5;" horiz-adv-x="649" 
d="M596 239h-226v-239h-91v239h-227v72h217l-54 99h-163v72h123l-144 261h101l135 -245q40 -73 57 -118h6q9 23 60 118l134 245h94l-144 -261h122v-72h-162l-55 -99h217v-72z" />
    <glyph glyph-name="brokenbar" unicode="&#xa6;" horiz-adv-x="316" 
d="M202 -207h-89v396h89v-396zM202 743v-395h-89v395h89z" />
    <glyph glyph-name="section" unicode="&#xa7;" horiz-adv-x="648" 
d="M105 -198v76q114 -13 207 -13q85 0 118 28t33 87q0 46 -20 74t-95 66l-126 65q-72 37 -103.5 82.5t-31.5 109.5q0 57 25 102q-25 39 -25 100q0 88 58 132t185 44q113 0 205 -20v-76q-165 13 -201 13q-87 0 -119 -22t-32 -71q0 -43 20 -70.5t82 -57.5l121 -59
q87 -42 121 -89t34 -112q0 -55 -28 -104q28 -47 28 -107q0 -89 -59.5 -143.5t-184.5 -54.5q-132 0 -212 20zM468 148v25q0 56 -17 81.5t-84 57.5l-121 59q-32 16 -73 48v-30q0 -58 15 -78.5t79 -52.5l124 -62q13 -6 77 -48z" />
    <glyph glyph-name="dieresis" unicode="&#xa8;" 
d="M384 643h-81v118h81v-118zM156 761v-118h-82v118h82z" />
    <glyph glyph-name="copyright" unicode="&#xa9;" horiz-adv-x="845" 
d="M768 377q0 -169 -96.5 -266.5t-251.5 -97.5t-252 97.5t-97 266.5q0 168 97 265.5t252 97.5t251.5 -97.5t96.5 -265.5zM696 377q0 136 -76.5 216t-199.5 80t-199 -80t-76 -216q0 -138 76 -218t199 -80t199.5 80t76.5 218zM426 163q-88 0 -134.5 47t-46.5 136v62
q0 90 46.5 136t134.5 46q77 0 112 -10v-64q-59 7 -108 7q-60 0 -82 -25.5t-22 -89.5v-62q0 -64 22 -90t82 -26q49 0 108 7v-64q-35 -10 -112 -10z" />
    <glyph glyph-name="ordfeminine" unicode="&#xaa;" horiz-adv-x="433" 
d="M352 434h-70v24q-50 -32 -117 -32q-49 0 -78.5 24t-29.5 73v10q0 27 9 46.5t23.5 30t38 17t46 8t54.5 1.5h50v19q0 40 -15 53t-66 13q-45 0 -115 -7v47q56 16 126 16q85 0 114.5 -28t29.5 -94v-221zM279 507v81h-51q-58 0 -78.5 -10t-20.5 -44v-13q0 -25 14 -32t43 -7
q54 0 93 25z" />
    <glyph glyph-name="guillemotleft" unicode="&#xab;" horiz-adv-x="676" 
d="M619 81h-106l-163 208l163 206h106l-158 -206zM167 289l158 -208h-106l-163 208l163 206h106z" />
    <glyph glyph-name="logicalnot" unicode="&#xac;" horiz-adv-x="702" 
d="M574 244h-75v220h-372v75h447v-295z" />
    <glyph glyph-name="uni00AD" unicode="&#xad;" horiz-adv-x="396" 
d="M321 255h-247v75h247v-75z" />
    <glyph glyph-name="registered" unicode="&#xae;" horiz-adv-x="682" 
d="M607 476q0 -129 -72.5 -206t-195.5 -77t-195.5 77t-72.5 206t72.5 206t195.5 77t195.5 -77t72.5 -206zM546 476q0 106 -55 166.5t-152 60.5q-98 0 -153 -60.5t-55 -166.5q0 -108 55 -168t153 -60q97 0 152 60t55 168zM483 325h-76l-80 119h-17h-17v-119h-63v321
q36 1 87 1q68 0 104.5 -20t36.5 -77v-3q0 -72 -64 -92zM394 547v3q0 30 -17 38t-60 8h-24v-103h25q40 0 58 11.5t18 42.5z" />
    <glyph glyph-name="macron" unicode="&#xaf;" 
d="M400 655h-343v70h343v-70z" />
    <glyph glyph-name="degree" unicode="&#xb0;" horiz-adv-x="454" 
d="M401 581q0 -72 -51 -122t-123 -50t-122.5 50t-50.5 122t50.5 122.5t122.5 50.5t123 -50.5t51 -122.5zM325 581q0 44 -28.5 72t-70.5 28q-41 0 -69.5 -28t-28.5 -72q0 -43 28.5 -71.5t69.5 -28.5q42 0 70.5 28.5t28.5 71.5z" />
    <glyph glyph-name="plusminus" unicode="&#xb1;" horiz-adv-x="702" 
d="M597 0h-494v74h494v-74zM601 384h-213v-215h-73v215h-215v73h215v215h73v-215h213v-73z" />
    <glyph glyph-name="two.superior" unicode="&#xb2;" horiz-adv-x="445" 
d="M68 718v54q60 15 149 15q84 0 125 -26.5t41 -84.5q0 -46 -27.5 -77.5t-99.5 -66.5q-73 -36 -93.5 -59.5t-20.5 -70.5v-6h235v-64h-316v56q0 75 31 114t115 80q61 30 77.5 47t16.5 45t-21.5 40t-71.5 12q-40 0 -140 -8z" />
    <glyph glyph-name="three.superior" unicode="&#xb3;" horiz-adv-x="442" 
d="M205 323q-89 0 -141 15v55q100 -8 135 -8q53 0 76 15t23 58q0 40 -14.5 57t-62.5 17h-136v60h137q47 0 61.5 18t14.5 54q0 34 -21 47.5t-78 13.5q-35 0 -135 -8v55q52 15 141 15t132 -27t43 -92q0 -78 -57 -106q57 -26 57 -106q0 -71 -43.5 -102t-131.5 -31z" />
    <glyph glyph-name="acute" unicode="&#xb4;" 
d="M391 770l-150 -154h-90l131 154h109z" />
    <glyph glyph-name="mu" unicode="&#xb5;" horiz-adv-x="645" 
d="M544 0h-90v43q-112 -57 -191 -57q-43 0 -73 12v-208h-90v760h89v-351q0 -78 18.5 -107t74.5 -29q60 0 172 49v438h90v-550z" />
    <glyph glyph-name="paragraph" unicode="&#xb6;" horiz-adv-x="736" 
d="M429 -198v455h-46q-73 0 -126.5 10.5t-98 36t-67.5 73.5t-23 118v10q0 73 23 122t69 73.5t100 33.5t132 9h262v-941h-84v864h-57v-864h-84z" />
    <glyph glyph-name="periodcentered" unicode="&#xb7;" horiz-adv-x="252" 
d="M171 300h-91v138h91v-138z" />
    <glyph glyph-name="cedilla" unicode="&#xb8;" 
d="M301 -68l-136 -142h-92l116 142h112z" />
    <glyph glyph-name="one.superior" unicode="&#xb9;" horiz-adv-x="430" 
d="M366 332h-290v59l104 3v310l-105 -33v67l128 43h59v-387l104 -3v-59z" />
    <glyph glyph-name="ordmasculine" unicode="&#xba;" horiz-adv-x="438" 
d="M381 585q0 -78 -41.5 -119t-120.5 -41t-120.5 41t-41.5 119v33q0 78 41.5 118.5t120.5 40.5t120.5 -40.5t41.5 -118.5v-33zM307 585v33q0 52 -20.5 75t-67.5 23q-46 0 -67 -23t-21 -75v-33q0 -52 20.5 -75t67.5 -23t67.5 23t20.5 75z" />
    <glyph glyph-name="guillemotright" unicode="&#xbb;" horiz-adv-x="676" 
d="M620 289l-163 -208h-106l158 208l-158 206h106zM162 495l164 -206l-164 -208h-106l159 208l-159 206h106z" />
    <glyph glyph-name="onequarter" unicode="&#xbc;" horiz-adv-x="943" 
d="M787 743l-473 -743h-90l473 743h90zM359 300h-290v59l104 3v310l-105 -33v67l128 43h59v-387l104 -3v-59zM816 0h-82v110h-225v66l228 270h79v-275h70v-61h-70v-110zM736 171v181l-152 -181h152z" />
    <glyph glyph-name="onehalf" unicode="&#xbd;" horiz-adv-x="1034" 
d="M787 743l-473 -743h-90l473 743h90zM359 300h-290v59l104 3v310l-105 -33v67l128 43h59v-387l104 -3v-59zM672 386v54q60 15 149 15q84 0 125 -26.5t41 -84.5q0 -46 -27.5 -78t-99.5 -67q-73 -36 -93.5 -59t-20.5 -70v-6h235v-64h-316v56q0 75 31 113.5t115 79.5
q61 29 77.5 46.5t16.5 46.5q0 28 -21.5 40t-71.5 12q-40 0 -140 -8z" />
    <glyph glyph-name="threequarters" unicode="&#xbe;" horiz-adv-x="989" 
d="M796 743l-474 -743h-90l474 743h90zM855 0h-82v110h-225v66l228 270h79v-275h70v-61h-70v-110zM775 171v181l-152 -181h152zM205 291q-89 0 -141 15v55q100 -8 135 -8q53 0 76 15t23 58q0 40 -14.5 57t-62.5 17h-136v60h137q47 0 61.5 18t14.5 54q0 34 -21 47.5t-78 13.5
q-35 0 -135 -8v55q52 15 141 15t132 -27t43 -92q0 -78 -57 -106q57 -26 57 -106q0 -71 -43.5 -102t-131.5 -31z" />
    <glyph glyph-name="questiondown" unicode="&#xbf;" horiz-adv-x="472" 
d="M442 -214q-87 -23 -165 -23q-103 0 -156 38.5t-53 124.5v8q0 49 22.5 92.5t81.5 102.5q64 65 79.5 97.5t15.5 88.5v42h88v-42q0 -70 -18 -115t-81 -106q-57 -55 -76 -88t-19 -72v-8q0 -48 30 -66t94 -18q49 0 157 12v-68zM355 412h-90v138h90v-138z" />
    <glyph glyph-name="Agrave" unicode="&#xc0;" horiz-adv-x="663" 
d="M638 0h-98l-77 243h-266l-79 -243h-93l243 743h127zM435 327l-70 217q-18 55 -30 122h-10q-16 -80 -30 -122l-71 -217h211zM422 789h-90l-150 154h109z" />
    <glyph glyph-name="Aacute" unicode="&#xc1;" horiz-adv-x="663" 
d="M638 0h-98l-77 243h-266l-79 -243h-93l243 743h127zM435 327l-70 217q-18 55 -30 122h-10q-16 -80 -30 -122l-71 -217h211zM502 943l-150 -154h-90l131 154h109z" />
    <glyph glyph-name="Acircumflex" unicode="&#xc2;" horiz-adv-x="663" 
d="M638 0h-98l-77 243h-266l-79 -243h-93l243 743h127zM435 327l-70 217q-18 55 -30 122h-10q-16 -80 -30 -122l-71 -217h211zM524 789h-90l-105 105l-104 -105h-90l135 154h119z" />
    <glyph glyph-name="Atilde" unicode="&#xc3;" horiz-adv-x="663" 
d="M638 0h-98l-77 243h-266l-79 -243h-93l243 743h127zM435 327l-70 217q-18 55 -30 122h-10q-16 -80 -30 -122l-71 -217h211zM529 907q0 -60 -22 -92t-75 -32q-50 0 -102 41l-41 33q-32 28 -57 28q-20 0 -27.5 -15t-7.5 -46v-34h-65v34q0 124 100 124q49 0 97 -38l42 -34
q36 -29 59 -29q21 0 28 14t7 46v34h64v-34z" />
    <glyph glyph-name="Adieresis" unicode="&#xc4;" horiz-adv-x="663" 
d="M638 0h-98l-77 243h-266l-79 -243h-93l243 743h127zM435 327l-70 217q-18 55 -30 122h-10q-16 -80 -30 -122l-71 -217h211zM485 809h-81v118h81v-118zM257 927v-118h-82v118h82z" />
    <glyph glyph-name="Aring" unicode="&#xc5;" horiz-adv-x="663" 
d="M638 0h-98l-77 243h-266l-79 -243h-93l243 743h127zM435 327l-70 217q-18 55 -30 122h-10q-16 -80 -30 -122l-71 -217h211zM448 879q0 -55 -31.5 -82t-83.5 -27q-53 0 -85.5 27t-32.5 82t32.5 82t85.5 27q52 0 83.5 -27t31.5 -82zM388 879q0 55 -55 55q-56 0 -56 -55
t56 -55q55 0 55 55z" />
    <glyph glyph-name="AE" unicode="&#xc6;" horiz-adv-x="964" 
d="M909 0h-439v243h-264l-77 -243h-94l240 743h634v-82h-348v-234h328v-83h-328v-263h348v-81zM470 325v337h-132q-2 -8 -14 -49t-19 -63l-72 -225h237z" />
    <glyph glyph-name="Ccedilla" unicode="&#xc7;" horiz-adv-x="557" 
d="M527 3q-102 -17 -172 -17q-54 0 -97 8.5t-82 30.5t-65 58t-41 93.5t-15 133.5v123q0 95 22 160t65 99.5t94 48.5t119 14q70 0 172 -17v-75q-115 10 -172 10q-109 0 -158.5 -53.5t-49.5 -186.5v-123q0 -133 49.5 -187t158.5 -54q69 0 172 9v-75zM392 -68l-136 -142h-92
l116 142h112z" />
    <glyph glyph-name="Egrave" unicode="&#xc8;" horiz-adv-x="580" 
d="M525 0h-440v743h440v-82h-348v-234h327v-83h-327v-263h348v-81zM371 789h-90l-150 154h109z" />
    <glyph glyph-name="Eacute" unicode="&#xc9;" horiz-adv-x="580" 
d="M525 0h-440v743h440v-82h-348v-234h327v-83h-327v-263h348v-81zM490 943l-150 -154h-90l131 154h109z" />
    <glyph glyph-name="Ecircumflex" unicode="&#xca;" horiz-adv-x="580" 
d="M525 0h-440v743h440v-82h-348v-234h327v-83h-327v-263h348v-81zM500 789h-90l-105 105l-104 -105h-90l135 154h119z" />
    <glyph glyph-name="Edieresis" unicode="&#xcb;" horiz-adv-x="580" 
d="M525 0h-440v743h440v-82h-348v-234h327v-83h-327v-263h348v-81zM461 809h-81v118h81v-118zM233 927v-118h-82v118h82z" />
    <glyph glyph-name="Igrave" unicode="&#xcc;" horiz-adv-x="262" 
d="M177 0h-92v743h92v-743zM227 789h-90l-150 154h109z" />
    <glyph glyph-name="Iacute" unicode="&#xcd;" horiz-adv-x="262" 
d="M177 0h-92v743h92v-743zM306 942l-150 -154h-90l131 154h109z" />
    <glyph glyph-name="Icircumflex" unicode="&#xce;" horiz-adv-x="262" 
d="M177 0h-92v743h92v-743zM326 789h-90l-105 105l-104 -105h-90l135 154h119z" />
    <glyph glyph-name="Idieresis" unicode="&#xcf;" horiz-adv-x="262" 
d="M177 0h-92v743h92v-743zM285 809h-81v118h81v-118zM57 927v-118h-82v118h82z" />
    <glyph glyph-name="Eth" unicode="&#xd0;" horiz-adv-x="674" 
d="M619 312q0 -312 -326 -312h-208v345h-53v81h53v317h208q167 0 246.5 -81.5t79.5 -228.5v-121zM526 312v121q0 123 -58.5 175.5t-182.5 52.5h-108v-235h150v-81h-150v-264h108q123 0 182 53.5t59 177.5z" />
    <glyph glyph-name="Ntilde" unicode="&#xd1;" horiz-adv-x="706" 
d="M621 0h-131l-262 533q-50 102 -60 126h-2q5 -82 5 -155v-504h-86v743h132l259 -519q29 -57 60 -127h2q-5 74 -5 163v483h88v-743zM550 905q0 -60 -22 -92t-75 -32q-50 0 -102 41l-41 33q-32 28 -57 28q-20 0 -27.5 -15t-7.5 -46v-34h-65v34q0 124 100 124q49 0 97 -38
l42 -34q36 -29 59 -29q21 0 28 14t7 46v34h64v-34z" />
    <glyph glyph-name="Ograve" unicode="&#xd2;" horiz-adv-x="684" 
d="M629 318q0 -159 -74.5 -245.5t-212.5 -86.5t-212.5 86.5t-74.5 245.5v106q0 159 74 245t213 86t213 -86t74 -245v-106zM536 318v106q0 249 -194 249t-194 -249v-106q0 -250 194 -250t194 250zM421 789h-90l-150 154h109z" />
    <glyph glyph-name="Oacute" unicode="&#xd3;" horiz-adv-x="684" 
d="M629 318q0 -159 -74.5 -245.5t-212.5 -86.5t-212.5 86.5t-74.5 245.5v106q0 159 74 245t213 86t213 -86t74 -245v-106zM536 318v106q0 249 -194 249t-194 -249v-106q0 -250 194 -250t194 250zM505 943l-150 -154h-90l131 154h109z" />
    <glyph glyph-name="Ocircumflex" unicode="&#xd4;" horiz-adv-x="684" 
d="M629 318q0 -159 -74.5 -245.5t-212.5 -86.5t-212.5 86.5t-74.5 245.5v106q0 159 74 245t213 86t213 -86t74 -245v-106zM536 318v106q0 249 -194 249t-194 -249v-106q0 -250 194 -250t194 250zM536 788h-90l-105 105l-104 -105h-90l135 154h119z" />
    <glyph glyph-name="Otilde" unicode="&#xd5;" horiz-adv-x="684" 
d="M629 318q0 -159 -74.5 -245.5t-212.5 -86.5t-212.5 86.5t-74.5 245.5v106q0 159 74 245t213 86t213 -86t74 -245v-106zM536 318v106q0 249 -194 249t-194 -249v-106q0 -250 194 -250t194 250zM540 905q0 -60 -22 -92t-75 -32q-50 0 -102 41l-41 33q-32 28 -57 28
q-20 0 -27.5 -15t-7.5 -46v-34h-65v34q0 124 100 124q49 0 97 -38l42 -34q36 -29 59 -29q21 0 28 14t7 46v34h64v-34z" />
    <glyph glyph-name="Odieresis" unicode="&#xd6;" horiz-adv-x="684" 
d="M629 318q0 -159 -74.5 -245.5t-212.5 -86.5t-212.5 86.5t-74.5 245.5v106q0 159 74 245t213 86t213 -86t74 -245v-106zM536 318v106q0 249 -194 249t-194 -249v-106q0 -250 194 -250t194 250zM497 810h-81v118h81v-118zM269 928v-118h-82v118h82z" />
    <glyph glyph-name="multiply" unicode="&#xd7;" horiz-adv-x="702" 
d="M553 239l-52 -51l-150 150l-152 -152l-51 51l152 153l-153 152l51 51l153 -152l151 152l52 -52l-152 -152z" />
    <glyph glyph-name="Oslash" unicode="&#xd8;" horiz-adv-x="684" 
d="M629 318q0 -159 -74.5 -245.5t-212.5 -86.5q-115 0 -186 59l-32 -45h-95l76 106q-50 82 -50 212v106q0 159 74 245t213 86q112 0 185 -59l33 46h95l-76 -106q50 -82 50 -212v-106zM475 623q-49 50 -133 50q-194 0 -194 -249v-106q0 -76 18 -127zM536 318v106
q0 76 -18 127l-310 -433q49 -50 134 -50q194 0 194 250z" />
    <glyph glyph-name="Ugrave" unicode="&#xd9;" horiz-adv-x="699" 
d="M619 309q0 -323 -269 -323q-270 0 -270 323v434h92v-424q0 -137 39 -193.5t139 -56.5t139 57t39 193v424h91v-434zM413 789h-90l-150 154h109z" />
    <glyph glyph-name="Uacute" unicode="&#xda;" horiz-adv-x="699" 
d="M619 309q0 -323 -269 -323q-270 0 -270 323v434h92v-424q0 -137 39 -193.5t139 -56.5t139 57t39 193v424h91v-434zM529 944l-150 -154h-90l131 154h109z" />
    <glyph glyph-name="Ucircumflex" unicode="&#xdb;" horiz-adv-x="699" 
d="M619 309q0 -323 -269 -323q-270 0 -270 323v434h92v-424q0 -137 39 -193.5t139 -56.5t139 57t39 193v424h91v-434zM545 789h-90l-105 105l-104 -105h-90l135 154h119z" />
    <glyph glyph-name="Udieresis" unicode="&#xdc;" horiz-adv-x="699" 
d="M619 309q0 -323 -269 -323q-270 0 -270 323v434h92v-424q0 -137 39 -193.5t139 -56.5t139 57t39 193v424h91v-434zM503 809h-81v118h81v-118zM275 927v-118h-82v118h82z" />
    <glyph glyph-name="Yacute" unicode="&#xdd;" horiz-adv-x="627" 
d="M607 743l-248 -449v-294h-91v294l-248 449h101l135 -245q40 -73 57 -118h6q9 23 60 118l134 245h94zM497 943l-150 -154h-90l131 154h109z" />
    <glyph glyph-name="Thorn" unicode="&#xde;" horiz-adv-x="615" 
d="M177 0h-92v743h92v-130h98q70 0 120 -8.5t94.5 -31t67.5 -67.5t23 -112v-13q0 -55 -16 -95t-42 -64t-66.5 -38.5t-82.5 -19.5t-98 -5h-98v-159zM487 381v13q-1 84 -49.5 111t-162.5 27h-98v-291h98q114 0 163 28t49 112z" />
    <glyph glyph-name="germandbls" unicode="&#xdf;" horiz-adv-x="626" 
d="M566 215q0 -105 -60.5 -163.5t-187.5 -58.5q-29 0 -61 3v70q30 -1 58 -1q86 0 124.5 35.5t38.5 115.5v23q0 131 -168 131h-53v71h53q83 0 117.5 34t34.5 96v11q0 61 -31.5 94t-109.5 33q-83 0 -117 -46.5t-34 -166.5v-496h-90v496q0 144 56.5 217.5t184.5 73.5
q115 0 172 -56t57 -149v-11q0 -118 -95 -161q53 -21 82 -65t29 -106v-24z" />
    <glyph glyph-name="agrave" unicode="&#xe0;" horiz-adv-x="545" 
d="M475 0h-86v37q-73 -51 -175 -51q-164 0 -164 156v20q0 101 62 135.5t191 34.5h82v40q0 72 -23.5 94t-105.5 22q-67 0 -170 -12v64q18 7 69.5 15.5t107.5 8.5q67 0 110 -11.5t65 -38t29.5 -59t7.5 -83.5v-372zM385 100v164h-82q-92 0 -127.5 -19.5t-35.5 -82.5v-27
q0 -44 24 -61.5t68 -17.5q43 0 86.5 14.5t66.5 29.5zM347 616h-90l-150 154h109z" />
    <glyph glyph-name="aacute" unicode="&#xe1;" horiz-adv-x="545" 
d="M475 0h-86v37q-73 -51 -175 -51q-164 0 -164 156v20q0 101 62 135.5t191 34.5h82v40q0 72 -23.5 94t-105.5 22q-67 0 -170 -12v64q18 7 69.5 15.5t107.5 8.5q67 0 110 -11.5t65 -38t29.5 -59t7.5 -83.5v-372zM385 100v164h-82q-92 0 -127.5 -19.5t-35.5 -82.5v-27
q0 -44 24 -61.5t68 -17.5q43 0 86.5 14.5t66.5 29.5zM450 770l-150 -154h-90l131 154h109z" />
    <glyph glyph-name="acircumflex" unicode="&#xe2;" horiz-adv-x="545" 
d="M475 0h-86v37q-73 -51 -175 -51q-164 0 -164 156v20q0 101 62 135.5t191 34.5h82v40q0 72 -23.5 94t-105.5 22q-67 0 -170 -12v64q18 7 69.5 15.5t107.5 8.5q67 0 110 -11.5t65 -38t29.5 -59t7.5 -83.5v-372zM385 100v164h-82q-92 0 -127.5 -19.5t-35.5 -82.5v-27
q0 -44 24 -61.5t68 -17.5q43 0 86.5 14.5t66.5 29.5zM469 616h-90l-105 105l-104 -105h-90l135 154h119z" />
    <glyph glyph-name="atilde" unicode="&#xe3;" horiz-adv-x="545" 
d="M475 0h-86v37q-73 -51 -175 -51q-164 0 -164 156v20q0 101 62 135.5t191 34.5h82v40q0 72 -23.5 94t-105.5 22q-67 0 -170 -12v64q18 7 69.5 15.5t107.5 8.5q67 0 110 -11.5t65 -38t29.5 -59t7.5 -83.5v-372zM385 100v164h-82q-92 0 -127.5 -19.5t-35.5 -82.5v-27
q0 -44 24 -61.5t68 -17.5q43 0 86.5 14.5t66.5 29.5zM473 736q0 -60 -22 -92t-75 -32q-50 0 -102 41l-41 33q-32 28 -57 28q-20 0 -27.5 -15t-7.5 -46v-34h-65v34q0 124 100 124q49 0 97 -38l42 -34q36 -29 59 -29q21 0 28 14t7 46v34h64v-34z" />
    <glyph glyph-name="adieresis" unicode="&#xe4;" horiz-adv-x="545" 
d="M475 0h-86v37q-73 -51 -175 -51q-164 0 -164 156v20q0 101 62 135.5t191 34.5h82v40q0 72 -23.5 94t-105.5 22q-67 0 -170 -12v64q18 7 69.5 15.5t107.5 8.5q67 0 110 -11.5t65 -38t29.5 -59t7.5 -83.5v-372zM385 100v164h-82q-92 0 -127.5 -19.5t-35.5 -82.5v-27
q0 -44 24 -61.5t68 -17.5q43 0 86.5 14.5t66.5 29.5zM430 643h-81v118h81v-118zM202 761v-118h-82v118h82z" />
    <glyph glyph-name="aring" unicode="&#xe5;" horiz-adv-x="545" 
d="M475 0h-86v37q-73 -51 -175 -51q-164 0 -164 156v20q0 101 62 135.5t191 34.5h82v40q0 72 -23.5 94t-105.5 22q-67 0 -170 -12v64q18 7 69.5 15.5t107.5 8.5q67 0 110 -11.5t65 -38t29.5 -59t7.5 -83.5v-372zM385 100v164h-82q-92 0 -127.5 -19.5t-35.5 -82.5v-27
q0 -44 24 -61.5t68 -17.5q43 0 86.5 14.5t66.5 29.5zM401 710q0 -55 -31.5 -82t-83.5 -27q-53 0 -85.5 27t-32.5 82t32.5 82t85.5 27q52 0 83.5 -27t31.5 -82zM341 710q0 55 -55 55q-56 0 -56 -55t56 -55q55 0 55 55z" />
    <glyph glyph-name="ae" unicode="&#xe6;" horiz-adv-x="909" 
d="M834 8q-86 -22 -195 -22q-148 0 -205 68q-101 -68 -220 -68q-164 0 -164 156v20q0 101 62 135.5t191 34.5h82v40q0 72 -23.5 94t-105.5 22q-67 0 -170 -12v64q18 7 69.5 15.5t107.5 8.5q82 0 122.5 -15t61.5 -47q59 61 172 61q235 0 235 -273v-48h-378v-11
q0 -42 4.5 -67.5t20 -51.5t50 -38t90.5 -12q90 0 193 18v-72zM762 316v10q0 160 -143 160q-142 0 -142 -160v-10h285zM385 100v164h-82q-92 0 -127.5 -19.5t-35.5 -82.5v-27q0 -44 24 -61.5t68 -17.5q43 0 86.5 14.5t66.5 29.5z" />
    <glyph glyph-name="ccedilla" unicode="&#xe7;" horiz-adv-x="477" 
d="M432 5q-60 -19 -157 -19q-111 0 -165.5 64t-54.5 184v83q0 247 220 247q97 0 157 -19v-68q-96 10 -144 10q-72 0 -107.5 -36.5t-35.5 -133.5v-83q0 -97 35.5 -134t107.5 -37q48 0 144 10v-68zM335 -68l-136 -142h-92l116 142h112z" />
    <glyph glyph-name="egrave" unicode="&#xe8;" horiz-adv-x="579" 
d="M524 242h-379v-11q0 -41 5 -67t21 -51t50.5 -37t89.5 -12q100 0 192 16v-72q-84 -22 -196 -22q-141 0 -196.5 63t-55.5 202v42q0 131 58.5 201t174.5 70q236 0 236 -282v-40zM431 316v10q0 24 -2.5 43t-11 42t-23 38.5t-41.5 26t-64 10.5q-143 0 -143 -160v-10h285z
M376 616h-90l-150 154h109z" />
    <glyph glyph-name="eacute" unicode="&#xe9;" horiz-adv-x="579" 
d="M524 242h-379v-11q0 -41 5 -67t21 -51t50.5 -37t89.5 -12q100 0 192 16v-72q-84 -22 -196 -22q-141 0 -196.5 63t-55.5 202v42q0 131 58.5 201t174.5 70q236 0 236 -282v-40zM431 316v10q0 24 -2.5 43t-11 42t-23 38.5t-41.5 26t-64 10.5q-143 0 -143 -160v-10h285z
M480 770l-150 -154h-90l131 154h109z" />
    <glyph glyph-name="ecircumflex" unicode="&#xea;" horiz-adv-x="579" 
d="M524 242h-379v-11q0 -41 5 -67t21 -51t50.5 -37t89.5 -12q100 0 192 16v-72q-84 -22 -196 -22q-141 0 -196.5 63t-55.5 202v42q0 131 58.5 201t174.5 70q236 0 236 -282v-40zM431 316v10q0 24 -2.5 43t-11 42t-23 38.5t-41.5 26t-64 10.5q-143 0 -143 -160v-10h285z
M488 616h-90l-105 105l-104 -105h-90l135 154h119z" />
    <glyph glyph-name="edieresis" unicode="&#xeb;" horiz-adv-x="579" 
d="M524 242h-379v-11q0 -41 5 -67t21 -51t50.5 -37t89.5 -12q100 0 192 16v-72q-84 -22 -196 -22q-141 0 -196.5 63t-55.5 202v42q0 131 58.5 201t174.5 70q236 0 236 -282v-40zM431 316v10q0 24 -2.5 43t-11 42t-23 38.5t-41.5 26t-64 10.5q-143 0 -143 -160v-10h285z
M445 643h-81v118h81v-118zM217 761v-118h-82v118h82z" />
    <glyph glyph-name="igrave" unicode="&#xec;" horiz-adv-x="256" 
d="M173 0h-90v550h90v-550zM205 616h-90l-150 154h109z" />
    <glyph glyph-name="iacute" unicode="&#xed;" horiz-adv-x="256" 
d="M173 0h-90v550h90v-550zM288 770l-150 -154h-90l131 154h109z" />
    <glyph glyph-name="icircumflex" unicode="&#xee;" horiz-adv-x="256" 
d="M173 0h-90v550h90v-550zM323 616h-90l-105 105l-104 -105h-90l135 154h119z" />
    <glyph glyph-name="idieresis" unicode="&#xef;" horiz-adv-x="256" 
d="M173 0h-90v550h90v-550zM284 643h-81v118h81v-118zM56 761v-118h-82v118h82z" />
    <glyph glyph-name="eth" unicode="&#xf0;" horiz-adv-x="579" 
d="M524 236q0 -122 -59.5 -185.5t-175.5 -63.5q-115 0 -174.5 63.5t-59.5 185.5v67q0 122 59.5 185.5t174.5 63.5q66 0 114 -28q-36 97 -117 141l-134 -87l-36 48l101 69q-62 15 -121 15q-13 0 -23 -1v72q11 1 28 1q108 0 191 -33l80 51l37 -47l-53 -37q168 -111 168 -413
v-67zM434 236v67q0 91 -34.5 131.5t-110.5 40.5q-75 0 -109.5 -40.5t-34.5 -131.5v-67q0 -90 34.5 -130.5t109.5 -40.5q76 0 110.5 40t34.5 131z" />
    <glyph glyph-name="ntilde" unicode="&#xf1;" horiz-adv-x="596" 
d="M521 0h-90v351q0 78 -18.5 107t-73.5 29q-61 0 -173 -49v-438h-89v550h89v-43q111 57 183 57q103 0 137.5 -51t34.5 -162v-351zM495 736q0 -60 -22 -92t-75 -32q-50 0 -102 41l-41 33q-32 28 -57 28q-20 0 -27.5 -15t-7.5 -46v-34h-65v34q0 124 100 124q49 0 97 -38
l42 -34q36 -29 59 -29q21 0 28 14t7 46v34h64v-34z" />
    <glyph glyph-name="ograve" unicode="&#xf2;" horiz-adv-x="579" 
d="M524 235q0 -121 -59.5 -185t-175.5 -64q-115 0 -174.5 64t-59.5 185v80q0 121 59.5 185t174.5 64q116 0 175.5 -64t59.5 -185v-80zM434 235v80q0 89 -34.5 129.5t-110.5 40.5q-75 0 -109.5 -40.5t-34.5 -129.5v-80q0 -89 34.5 -129.5t109.5 -40.5q76 0 110.5 40.5
t34.5 129.5zM368 616h-90l-150 154h109z" />
    <glyph glyph-name="oacute" unicode="&#xf3;" horiz-adv-x="579" 
d="M524 235q0 -121 -59.5 -185t-175.5 -64q-115 0 -174.5 64t-59.5 185v80q0 121 59.5 185t174.5 64q116 0 175.5 -64t59.5 -185v-80zM434 235v80q0 89 -34.5 129.5t-110.5 40.5q-75 0 -109.5 -40.5t-34.5 -129.5v-80q0 -89 34.5 -129.5t109.5 -40.5q76 0 110.5 40.5
t34.5 129.5zM461 770l-150 -154h-90l131 154h109z" />
    <glyph glyph-name="ocircumflex" unicode="&#xf4;" horiz-adv-x="579" 
d="M524 235q0 -121 -59.5 -185t-175.5 -64q-115 0 -174.5 64t-59.5 185v80q0 121 59.5 185t174.5 64q116 0 175.5 -64t59.5 -185v-80zM434 235v80q0 89 -34.5 129.5t-110.5 40.5q-75 0 -109.5 -40.5t-34.5 -129.5v-80q0 -89 34.5 -129.5t109.5 -40.5q76 0 110.5 40.5
t34.5 129.5zM484 616h-90l-105 105l-104 -105h-90l135 154h119z" />
    <glyph glyph-name="otilde" unicode="&#xf5;" horiz-adv-x="579" 
d="M524 235q0 -121 -59.5 -185t-175.5 -64q-115 0 -174.5 64t-59.5 185v80q0 121 59.5 185t174.5 64q116 0 175.5 -64t59.5 -185v-80zM434 235v80q0 89 -34.5 129.5t-110.5 40.5q-75 0 -109.5 -40.5t-34.5 -129.5v-80q0 -89 34.5 -129.5t109.5 -40.5q76 0 110.5 40.5
t34.5 129.5zM488 736q0 -60 -22 -92t-75 -32q-50 0 -102 41l-41 33q-32 28 -57 28q-20 0 -27.5 -15t-7.5 -46v-34h-65v34q0 124 100 124q49 0 97 -38l42 -34q36 -29 59 -29q21 0 28 14t7 46v34h64v-34z" />
    <glyph glyph-name="odieresis" unicode="&#xf6;" horiz-adv-x="579" 
d="M524 235q0 -121 -59.5 -185t-175.5 -64q-115 0 -174.5 64t-59.5 185v80q0 121 59.5 185t174.5 64q116 0 175.5 -64t59.5 -185v-80zM434 235v80q0 89 -34.5 129.5t-110.5 40.5q-75 0 -109.5 -40.5t-34.5 -129.5v-80q0 -89 34.5 -129.5t109.5 -40.5q76 0 110.5 40.5
t34.5 129.5zM444 643h-81v118h81v-118zM216 761v-118h-82v118h82z" />
    <glyph glyph-name="divide" unicode="&#xf7;" horiz-adv-x="702" 
d="M397 117h-92v134h92v-134zM589 428v-74h-477v74h477zM397 528h-92v133h92v-133z" />
    <glyph glyph-name="oslash" unicode="&#xf8;" horiz-adv-x="579" 
d="M524 235q0 -121 -59.5 -185t-175.5 -64q-83 0 -139 34l-34 -44h-93l73 96q-41 62 -41 163v80q0 121 59.5 185t174.5 64q91 0 150 -42l40 52h93l-83 -108q35 -61 35 -151v-80zM434 235v80q0 34 -7 69l-227 -297q34 -22 89 -22q75 0 110 40.5t35 129.5zM388 455
q-34 30 -99 30q-75 0 -109.5 -40.5t-34.5 -129.5v-80q0 -52 10 -85z" />
    <glyph glyph-name="ugrave" unicode="&#xf9;" horiz-adv-x="596" 
d="M519 0h-90v43q-112 -57 -191 -57q-94 0 -128.5 55.5t-34.5 157.5v351h89v-351q0 -78 18.5 -107t74.5 -29q60 0 172 49v438h90v-550zM365 616h-90l-150 154h109z" />
    <glyph glyph-name="uacute" unicode="&#xfa;" horiz-adv-x="596" 
d="M519 0h-90v43q-112 -57 -191 -57q-94 0 -128.5 55.5t-34.5 157.5v351h89v-351q0 -78 18.5 -107t74.5 -29q60 0 172 49v438h90v-550zM484 770l-150 -154h-90l131 154h109z" />
    <glyph glyph-name="ucircumflex" unicode="&#xfb;" horiz-adv-x="596" 
d="M519 0h-90v43q-112 -57 -191 -57q-94 0 -128.5 55.5t-34.5 157.5v351h89v-351q0 -78 18.5 -107t74.5 -29q60 0 172 49v438h90v-550zM494 616h-90l-105 105l-104 -105h-90l135 154h119z" />
    <glyph glyph-name="udieresis" unicode="&#xfc;" horiz-adv-x="596" 
d="M519 0h-90v43q-112 -57 -191 -57q-94 0 -128.5 55.5t-34.5 157.5v351h89v-351q0 -78 18.5 -107t74.5 -29q60 0 172 49v438h90v-550zM454 643h-81v118h81v-118zM226 761v-118h-82v118h82z" />
    <glyph glyph-name="yacute" unicode="&#xfd;" horiz-adv-x="547" 
d="M524 550l-209 -599q-16 -45 -29 -72.5t-34 -53t-51 -37t-71 -11.5q-60 0 -107 10v69q57 -4 104 -4q38 0 56.5 21.5t42.5 86.5l15 40l-213 550h99l112 -309q20 -58 44 -146h2q17 73 42 147l101 308h96zM462 770l-150 -154h-90l131 154h109z" />
    <glyph glyph-name="thorn" unicode="&#xfe;" horiz-adv-x="577" 
d="M166 -210h-89v984h89v-260q76 50 153 50q203 0 203 -242v-84q0 -251 -232 -251q-49 0 -124 15v-212zM433 238v84q0 85 -30.5 124t-93.5 39q-60 0 -143 -41v-367q79 -14 123 -14q72 0 108 37.5t36 137.5z" />
    <glyph glyph-name="ydieresis" unicode="&#xff;" horiz-adv-x="547" 
d="M524 550l-209 -599q-16 -45 -29 -72.5t-34 -53t-51 -37t-71 -11.5q-60 0 -107 10v69q57 -4 104 -4q38 0 56.5 21.5t42.5 86.5l15 40l-213 550h99l112 -309q20 -58 44 -146h2q17 73 42 147l101 308h96zM440 643h-81v118h81v-118zM212 761v-118h-82v118h82z" />
    <glyph glyph-name="Amacron" unicode="&#x100;" horiz-adv-x="663" 
d="M638 0h-98l-77 243h-266l-79 -243h-93l243 743h127zM435 327l-70 217q-18 55 -30 122h-10q-16 -80 -30 -122l-71 -217h211zM503 824h-343v70h343v-70z" />
    <glyph glyph-name="amacron" unicode="&#x101;" horiz-adv-x="545" 
d="M475 0h-86v37q-73 -51 -175 -51q-164 0 -164 156v20q0 101 62 135.5t191 34.5h82v40q0 72 -23.5 94t-105.5 22q-67 0 -170 -12v64q18 7 69.5 15.5t107.5 8.5q67 0 110 -11.5t65 -38t29.5 -59t7.5 -83.5v-372zM385 100v164h-82q-92 0 -127.5 -19.5t-35.5 -82.5v-27
q0 -44 24 -61.5t68 -17.5q43 0 86.5 14.5t66.5 29.5zM446 655h-343v70h343v-70z" />
    <glyph glyph-name="Abreve" unicode="&#x102;" horiz-adv-x="663" 
d="M638 0h-98l-77 243h-266l-79 -243h-93l243 743h127zM435 327l-70 217q-18 55 -30 122h-10q-16 -80 -30 -122l-71 -217h211zM500 944q-13 -155 -169 -155q-157 0 -168 155h67q5 -52 29 -73.5t72 -21.5t72 21.5t30 73.5h67z" />
    <glyph glyph-name="abreve" unicode="&#x103;" horiz-adv-x="545" 
d="M475 0h-86v37q-73 -51 -175 -51q-164 0 -164 156v20q0 101 62 135.5t191 34.5h82v40q0 72 -23.5 94t-105.5 22q-67 0 -170 -12v64q18 7 69.5 15.5t107.5 8.5q67 0 110 -11.5t65 -38t29.5 -59t7.5 -83.5v-372zM385 100v164h-82q-92 0 -127.5 -19.5t-35.5 -82.5v-27
q0 -44 24 -61.5t68 -17.5q43 0 86.5 14.5t66.5 29.5zM450 771q-13 -155 -169 -155q-157 0 -168 155h67q5 -52 29 -73.5t72 -21.5t72 21.5t30 73.5h67z" />
    <glyph glyph-name="Aogonek" unicode="&#x104;" horiz-adv-x="663" 
d="M638 -207q-28 -10 -85 -10q-62 0 -94.5 26t-32.5 73q0 34 29 67.5t82 58.5l-74 235h-266l-79 -243h-93l243 743h127l243 -743q-82 -37 -109 -63.5t-27 -50.5q0 -46 59 -46q9 0 77 5v-52zM435 327l-70 217q-18 55 -30 122h-10q-16 -80 -30 -122l-71 -217h211z" />
    <glyph glyph-name="aogonek" unicode="&#x105;" horiz-adv-x="545" 
d="M475 -207q-27 -10 -85 -10q-62 0 -94.5 26t-32.5 73q0 39 32 65.5t94 54.5v43q-85 -59 -175 -59q-164 0 -164 156v20q0 101 62 135.5t191 34.5h82v40q0 72 -23.5 94t-105.5 22q-67 0 -170 -12v64q18 7 69.5 15.5t107.5 8.5q67 0 110 -11.5t65 -38t29.5 -59t7.5 -83.5
v-372q-82 -37 -109 -63.5t-27 -50.5q0 -46 59 -46q10 0 77 5v-52zM385 108v156h-82q-92 0 -127.5 -19.5t-35.5 -82.5v-27q0 -44 24 -61.5t68 -17.5q73 0 153 52z" />
    <glyph glyph-name="Cacute" unicode="&#x106;" horiz-adv-x="557" 
d="M527 3q-102 -17 -172 -17q-54 0 -97 8.5t-82 30.5t-65 58t-41 93.5t-15 133.5v123q0 95 22 160t65 99.5t94 48.5t119 14q70 0 172 -17v-75q-115 10 -172 10q-109 0 -158.5 -53.5t-49.5 -186.5v-123q0 -133 49.5 -187t158.5 -54q69 0 172 9v-75zM515 943l-150 -154h-90
l131 154h109z" />
    <glyph glyph-name="cacute" unicode="&#x107;" horiz-adv-x="477" 
d="M432 5q-60 -19 -157 -19q-111 0 -165.5 64t-54.5 184v83q0 247 220 247q97 0 157 -19v-68q-96 10 -144 10q-72 0 -107.5 -36.5t-35.5 -133.5v-83q0 -97 35.5 -134t107.5 -37q48 0 144 10v-68zM461 770l-150 -154h-90l131 154h109z" />
    <glyph glyph-name="Ccircumflex" unicode="&#x108;" horiz-adv-x="557" 
d="M527 3q-102 -17 -172 -17q-54 0 -97 8.5t-82 30.5t-65 58t-41 93.5t-15 133.5v123q0 95 22 160t65 99.5t94 48.5t119 14q70 0 172 -17v-75q-115 10 -172 10q-109 0 -158.5 -53.5t-49.5 -186.5v-123q0 -133 49.5 -187t158.5 -54q69 0 172 9v-75zM512 789h-90l-105 105
l-104 -105h-90l135 154h119z" />
    <glyph glyph-name="ccircumflex" unicode="&#x109;" horiz-adv-x="477" 
d="M432 5q-60 -19 -157 -19q-111 0 -165.5 64t-54.5 184v83q0 247 220 247q97 0 157 -19v-68q-96 10 -144 10q-72 0 -107.5 -36.5t-35.5 -133.5v-83q0 -97 35.5 -134t107.5 -37q48 0 144 10v-68zM464 616h-90l-105 105l-104 -105h-90l135 154h119z" />
    <glyph glyph-name="Cdotaccent" unicode="&#x10a;" horiz-adv-x="557" 
d="M527 3q-102 -17 -172 -17q-54 0 -97 8.5t-82 30.5t-65 58t-41 93.5t-15 133.5v123q0 95 22 160t65 99.5t94 48.5t119 14q70 0 172 -17v-75q-115 10 -172 10q-109 0 -158.5 -53.5t-49.5 -186.5v-123q0 -133 49.5 -187t158.5 -54q69 0 172 9v-75zM379 809h-89v120h89v-120z
" />
    <glyph glyph-name="cdotaccent" unicode="&#x10b;" horiz-adv-x="477" 
d="M432 5q-60 -19 -157 -19q-111 0 -165.5 64t-54.5 184v83q0 247 220 247q97 0 157 -19v-68q-96 10 -144 10q-72 0 -107.5 -36.5t-35.5 -133.5v-83q0 -97 35.5 -134t107.5 -37q48 0 144 10v-68zM328 651h-89v120h89v-120z" />
    <glyph glyph-name="Ccaron" unicode="&#x10c;" horiz-adv-x="557" 
d="M527 3q-102 -17 -172 -17q-54 0 -97 8.5t-82 30.5t-65 58t-41 93.5t-15 133.5v123q0 95 22 160t65 99.5t94 48.5t119 14q70 0 172 -17v-75q-115 10 -172 10q-109 0 -158.5 -53.5t-49.5 -186.5v-123q0 -133 49.5 -187t158.5 -54q69 0 172 9v-75zM140 943h90l104 -106
l105 106h90l-135 -154h-119z" />
    <glyph glyph-name="ccaron" unicode="&#x10d;" horiz-adv-x="477" 
d="M432 5q-60 -19 -157 -19q-111 0 -165.5 64t-54.5 184v83q0 247 220 247q97 0 157 -19v-68q-96 10 -144 10q-72 0 -107.5 -36.5t-35.5 -133.5v-83q0 -97 35.5 -134t107.5 -37q48 0 144 10v-68zM78 770h90l104 -106l105 106h90l-135 -154h-119z" />
    <glyph glyph-name="Dcaron" unicode="&#x10e;" horiz-adv-x="674" 
d="M619 312q0 -312 -326 -312h-208v743h208q167 0 246.5 -81.5t79.5 -228.5v-121zM526 312v121q0 123 -58.5 175.5t-182.5 52.5h-108v-580h108q123 0 182 53.5t59 177.5zM142 942h90l104 -106l105 106h90l-135 -154h-119z" />
    <glyph glyph-name="dcaron" unicode="&#x10f;" horiz-adv-x="691" 
d="M501 0h-87v28q-71 -42 -154 -42q-205 0 -205 235v95q0 138 60 193t167 55q61 0 129 -14v224h90v-774zM411 97v378q-73 13 -123 13q-74 0 -108.5 -34.5t-34.5 -137.5v-95q0 -82 31.5 -120t100.5 -38q64 0 134 34zM711 774l-74 -229h-69l48 229h95z" />
    <glyph glyph-name="Dcroat" unicode="&#x110;" horiz-adv-x="674" 
d="M619 312q0 -312 -326 -312h-208v345h-53v81h53v317h208q167 0 246.5 -81.5t79.5 -228.5v-121zM526 312v121q0 123 -58.5 175.5t-182.5 52.5h-108v-235h150v-81h-150v-264h108q123 0 182 53.5t59 177.5z" />
    <glyph glyph-name="dcroat" unicode="&#x111;" horiz-adv-x="586" 
d="M411 774h90v-69h60v-78h-60v-627h-87v28q-71 -42 -154 -42q-205 0 -205 235v95q0 138 60 193t167 55q61 0 129 -14v77h-171v78h171v69zM411 97v378q-73 13 -123 13q-74 0 -108.5 -34.5t-34.5 -137.5v-95q0 -82 31.5 -120t100.5 -38q64 0 134 34z" />
    <glyph glyph-name="Emacron" unicode="&#x112;" horiz-adv-x="580" 
d="M525 0h-440v743h440v-82h-348v-234h327v-83h-327v-263h348v-81zM480 824h-343v70h343v-70z" />
    <glyph glyph-name="emacron" unicode="&#x113;" horiz-adv-x="579" 
d="M524 242h-379v-11q0 -41 5 -67t21 -51t50.5 -37t89.5 -12q100 0 192 16v-72q-84 -22 -196 -22q-141 0 -196.5 63t-55.5 202v42q0 131 58.5 201t174.5 70q236 0 236 -282v-40zM431 316v10q0 24 -2.5 43t-11 42t-23 38.5t-41.5 26t-64 10.5q-143 0 -143 -160v-10h285z
M458 655h-343v70h343v-70z" />
    <glyph glyph-name="Ebreve" unicode="&#x114;" horiz-adv-x="580" 
d="M525 0h-440v743h440v-82h-348v-234h327v-83h-327v-263h348v-81zM480 944q-13 -155 -169 -155q-157 0 -168 155h67q5 -52 29 -73.5t72 -21.5t72 21.5t30 73.5h67z" />
    <glyph glyph-name="ebreve" unicode="&#x115;" horiz-adv-x="579" 
d="M524 242h-379v-11q0 -41 5 -67t21 -51t50.5 -37t89.5 -12q100 0 192 16v-72q-84 -22 -196 -22q-141 0 -196.5 63t-55.5 202v42q0 131 58.5 201t174.5 70q236 0 236 -282v-40zM431 316v10q0 24 -2.5 43t-11 42t-23 38.5t-41.5 26t-64 10.5q-143 0 -143 -160v-10h285z
M459 770q-13 -155 -169 -155q-157 0 -168 155h67q5 -52 29 -73.5t72 -21.5t72 21.5t30 73.5h67z" />
    <glyph glyph-name="Edotaccent" unicode="&#x116;" horiz-adv-x="580" 
d="M525 0h-440v743h440v-82h-348v-234h327v-83h-327v-263h348v-81zM350 809h-89v120h89v-120z" />
    <glyph glyph-name="edotaccent" unicode="&#x117;" horiz-adv-x="579" 
d="M524 242h-379v-11q0 -41 5 -67t21 -51t50.5 -37t89.5 -12q100 0 192 16v-72q-84 -22 -196 -22q-141 0 -196.5 63t-55.5 202v42q0 131 58.5 201t174.5 70q236 0 236 -282v-40zM431 316v10q0 24 -2.5 43t-11 42t-23 38.5t-41.5 26t-64 10.5q-143 0 -143 -160v-10h285z
M331 651h-89v120h89v-120z" />
    <glyph glyph-name="Eogonek" unicode="&#x118;" horiz-adv-x="580" 
d="M525 -207q-27 -10 -85 -10q-62 0 -94.5 26t-32.5 73q0 67 96 118h-324v743h440v-82h-348v-234h327v-83h-327v-263h348v-81q-82 -37 -109 -63.5t-27 -50.5q0 -46 59 -46q10 0 77 5v-52z" />
    <glyph glyph-name="eogonek" unicode="&#x119;" horiz-adv-x="579" 
d="M517 -207q-27 -10 -85 -10q-62 0 -94.5 26t-32.5 73q0 60 69 107q-32 -3 -67 -3q-141 0 -196.5 63t-55.5 202v42q0 131 58.5 201t174.5 70q236 0 236 -282v-40h-379v-11q0 -41 5 -67t21 -51t50.5 -37t89.5 -12q100 0 192 16v-72q-43 -23 -69.5 -41.5t-37 -34t-13 -24.5
t-2.5 -22q0 -46 59 -46q9 0 77 5v-52zM431 316v10q0 24 -2.5 43t-11 42t-23 38.5t-41.5 26t-64 10.5q-143 0 -143 -160v-10h285z" />
    <glyph glyph-name="Ecaron" unicode="&#x11a;" horiz-adv-x="580" 
d="M525 0h-440v743h440v-82h-348v-234h327v-83h-327v-263h348v-81zM116 943h90l104 -106l105 106h90l-135 -154h-119z" />
    <glyph glyph-name="ecaron" unicode="&#x11b;" horiz-adv-x="579" 
d="M524 242h-379v-11q0 -41 5 -67t21 -51t50.5 -37t89.5 -12q100 0 192 16v-72q-84 -22 -196 -22q-141 0 -196.5 63t-55.5 202v42q0 131 58.5 201t174.5 70q236 0 236 -282v-40zM431 316v10q0 24 -2.5 43t-11 42t-23 38.5t-41.5 26t-64 10.5q-143 0 -143 -160v-10h285z
M106 770h90l104 -106l105 106h90l-135 -154h-119z" />
    <glyph glyph-name="Gcircumflex" unicode="&#x11c;" horiz-adv-x="634" 
d="M569 7q-105 -21 -219 -21q-295 0 -295 320v131q0 318 296 318q114 0 218 -19v-74q-121 11 -205 11q-52 0 -87.5 -8.5t-67 -33t-46.5 -72.5t-15 -122v-131q0 -135 52 -185.5t162 -50.5q70 0 115 3v313h92v-379zM529 789h-90l-105 105l-104 -105h-90l135 154h119z" />
    <glyph glyph-name="gcircumflex" unicode="&#x11d;" horiz-adv-x="578" 
d="M501 -31q0 -95 -44.5 -143.5t-167.5 -48.5q-55 0 -118 7.5t-84 12.5v65q120 -8 202 -8q76 0 99 26t23 89v28q-60 -10 -111 -10q-122 0 -183.5 58t-61.5 196v69q0 129 58.5 191.5t189.5 62.5q88 0 198 -14v-581zM411 72v409q-38 7 -108 7q-90 0 -124 -42t-34 -136v-69
q0 -102 35 -140t121 -38q68 0 110 9zM487 616h-90l-105 105l-104 -105h-90l135 154h119z" />
    <glyph glyph-name="Gbreve" unicode="&#x11e;" horiz-adv-x="634" 
d="M569 7q-105 -21 -219 -21q-295 0 -295 320v131q0 318 296 318q114 0 218 -19v-74q-121 11 -205 11q-52 0 -87.5 -8.5t-67 -33t-46.5 -72.5t-15 -122v-131q0 -135 52 -185.5t162 -50.5q70 0 115 3v313h92v-379zM515 943q-13 -155 -169 -155q-157 0 -168 155h67
q5 -52 29 -73.5t72 -21.5t72 21.5t30 73.5h67z" />
    <glyph glyph-name="gbreve" unicode="&#x11f;" horiz-adv-x="578" 
d="M501 -31q0 -95 -44.5 -143.5t-167.5 -48.5q-55 0 -118 7.5t-84 12.5v65q120 -8 202 -8q76 0 99 26t23 89v28q-60 -10 -111 -10q-122 0 -183.5 58t-61.5 196v69q0 129 58.5 191.5t189.5 62.5q88 0 198 -14v-581zM411 72v409q-38 7 -108 7q-90 0 -124 -42t-34 -136v-69
q0 -102 35 -140t121 -38q68 0 110 9zM461 770q-13 -155 -169 -155q-157 0 -168 155h67q5 -52 29 -73.5t72 -21.5t72 21.5t30 73.5h67z" />
    <glyph glyph-name="Gdotaccent" unicode="&#x120;" horiz-adv-x="634" 
d="M569 7q-105 -21 -219 -21q-295 0 -295 320v131q0 318 296 318q114 0 218 -19v-74q-121 11 -205 11q-52 0 -87.5 -8.5t-67 -33t-46.5 -72.5t-15 -122v-131q0 -135 52 -185.5t162 -50.5q70 0 115 3v313h92v-379zM390 809h-89v120h89v-120z" />
    <glyph glyph-name="gdotaccent" unicode="&#x121;" horiz-adv-x="578" 
d="M501 -31q0 -95 -44.5 -143.5t-167.5 -48.5q-55 0 -118 7.5t-84 12.5v65q120 -8 202 -8q76 0 99 26t23 89v28q-60 -10 -111 -10q-122 0 -183.5 58t-61.5 196v69q0 129 58.5 191.5t189.5 62.5q88 0 198 -14v-581zM411 72v409q-38 7 -108 7q-90 0 -124 -42t-34 -136v-69
q0 -102 35 -140t121 -38q68 0 110 9zM337 651h-89v120h89v-120z" />
    <glyph glyph-name="Gcommaaccent" unicode="&#x122;" horiz-adv-x="634" 
d="M569 7q-105 -21 -219 -21q-295 0 -295 320v131q0 318 296 318q114 0 218 -19v-74q-121 11 -205 11q-52 0 -87.5 -8.5t-67 -33t-46.5 -72.5t-15 -122v-131q0 -135 52 -185.5t162 -50.5q70 0 115 3v313h92v-379zM402 -68l-89 -142h-82l67 142h104z" />
    <glyph glyph-name="gcommaaccent" unicode="&#x123;" horiz-adv-x="578" 
d="M501 -31q0 -95 -44.5 -143.5t-167.5 -48.5q-55 0 -118 7.5t-84 12.5v65q120 -8 202 -8q76 0 99 26t23 89v28q-60 -10 -111 -10q-122 0 -183.5 58t-61.5 196v69q0 129 58.5 191.5t189.5 62.5q88 0 198 -14v-581zM411 72v409q-38 7 -108 7q-90 0 -124 -42t-34 -136v-69
q0 -102 35 -140t121 -38q68 0 110 9zM251 616l89 142h82l-67 -142h-104z" />
    <glyph glyph-name="Hcircumflex" unicode="&#x124;" horiz-adv-x="726" 
d="M641 0h-92v351h-372v-351h-92v743h92v-309h372v309h92v-743zM560 788h-90l-105 105l-104 -105h-90l135 154h119z" />
    <glyph glyph-name="hcircumflex" unicode="&#x125;" horiz-adv-x="596" 
d="M521 0h-90v348q0 80 -23 109t-81 29q-81 0 -161 -39v-447h-89v774h89v-255q87 45 179 45q90 0 133 -52.5t43 -160.5v-351zM491 789h-90l-105 105l-104 -105h-90l135 154h119z" />
    <glyph glyph-name="Hbar" unicode="&#x126;" horiz-adv-x="726" 
d="M21 541v72h64v130h92v-130h372v130h92v-130h65v-72h-65v-541h-92v351h-372v-351h-92v541h-64zM177 434h372v107h-372v-107z" />
    <glyph glyph-name="hbar" unicode="&#x127;" horiz-adv-x="596" 
d="M19 631v74h58v69h90v-69h174v-74h-174v-112q85 45 178 45q90 0 133 -52.5t43 -160.5v-351h-90v348q0 80 -23 109t-81 29q-80 0 -160 -39v-447h-90v631h-58z" />
    <glyph glyph-name="Itilde" unicode="&#x128;" horiz-adv-x="262" 
d="M177 0h-92v743h92v-743zM328 906q0 -60 -22 -92t-75 -32q-50 0 -102 41l-41 33q-32 28 -57 28q-20 0 -27.5 -15t-7.5 -46v-34h-65v34q0 124 100 124q49 0 97 -38l42 -34q36 -29 59 -29q21 0 28 14t7 46v34h64v-34z" />
    <glyph glyph-name="itilde" unicode="&#x129;" horiz-adv-x="256" 
d="M173 0h-90v550h90v-550zM327 736q0 -60 -22 -92t-75 -32q-50 0 -102 41l-41 33q-32 28 -57 28q-20 0 -27.5 -15t-7.5 -46v-34h-65v34q0 124 100 124q49 0 97 -38l42 -34q36 -29 59 -29q21 0 28 14t7 46v34h64v-34z" />
    <glyph glyph-name="Imacron" unicode="&#x12a;" horiz-adv-x="262" 
d="M177 0h-92v743h92v-743zM303 824h-343v70h343v-70z" />
    <glyph glyph-name="imacron" unicode="&#x12b;" horiz-adv-x="256" 
d="M173 0h-90v550h90v-550zM300 655h-343v70h343v-70z" />
    <glyph glyph-name="Ibreve" unicode="&#x12c;" horiz-adv-x="262" 
d="M177 0h-92v743h92v-743zM300 944q-13 -155 -169 -155q-157 0 -168 155h67q5 -52 29 -73.5t72 -21.5t72 21.5t30 73.5h67z" />
    <glyph glyph-name="ibreve" unicode="&#x12d;" horiz-adv-x="256" 
d="M173 0h-90v550h90v-550zM297 770q-13 -155 -169 -155q-157 0 -168 155h67q5 -52 29 -73.5t72 -21.5t72 21.5t30 73.5h67z" />
    <glyph glyph-name="Iogonek" unicode="&#x12e;" horiz-adv-x="262" 
d="M229 -207q-27 -10 -85 -10q-127 0 -127 99q0 72 68 118v743h92v-743q-84 -49 -84 -114q0 -46 60 -46q9 0 76 5v-52z" />
    <glyph glyph-name="iogonek" unicode="&#x12f;" horiz-adv-x="256" 
d="M232 -207q-27 -10 -85 -10q-62 0 -94.5 26t-32.5 73q0 64 63 121v547h90v-550q-77 -59 -77 -114q0 -46 59 -46q9 0 77 5v-52zM174 652h-91v122h91v-122z" />
    <glyph glyph-name="Idotaccent" unicode="&#x130;" horiz-adv-x="262" 
d="M177 0h-92v743h92v-743zM176 809h-89v120h89v-120z" />
    <glyph glyph-name="dotlessi" unicode="&#x131;" horiz-adv-x="256" 
d="M173 0h-90v550h90v-550z" />
    <glyph glyph-name="IJ" unicode="&#x132;" horiz-adv-x="523" 
d="M177 0h-92v743h92v-743zM438 -60q0 -84 -34 -121.5t-119 -37.5q-50 0 -74 8v69h68q44 0 56 17t12 65v803h91v-803z" />
    <glyph glyph-name="ij" unicode="&#x133;" horiz-adv-x="521" 
d="M175 0h-90v550h90v-550zM176 652h-91v122h91v-122zM436 -67q0 -88 -30.5 -122t-108.5 -34q-45 0 -67 5v66q5 0 25.5 -0.5t33.5 -0.5q36 0 46.5 17.5t10.5 68.5v617h90v-617zM437 652h-91v122h91v-122z" />
    <glyph glyph-name="Jcircumflex" unicode="&#x134;" horiz-adv-x="261" 
d="M176 -60q0 -84 -34 -121.5t-119 -37.5q-50 0 -74 8v69h68q44 0 56 17t12 65v803h91v-803zM325 789h-90l-105 105l-104 -105h-90l135 154h119z" />
    <glyph glyph-name="jcircumflex" unicode="&#x135;" horiz-adv-x="256" 
d="M173 -66q0 -88 -30.5 -122t-108.5 -34q-45 0 -67 5v66q5 0 25.5 -0.5t33.5 -0.5q36 0 46.5 17.5t10.5 68.5v616h90v-616zM323 616h-90l-105 105l-104 -105h-90l135 154h119z" />
    <glyph glyph-name="Kcommaaccent" unicode="&#x136;" horiz-adv-x="634" 
d="M619 0h-126l-311 358v-358h-92v743h92v-349l319 349h118l-335 -365zM402 -68l-89 -142h-82l67 142h104z" />
    <glyph glyph-name="kcommaaccent" unicode="&#x137;" horiz-adv-x="522" 
d="M507 0h-119l-222 273v-273h-89v774h89v-472l221 248h116l-238 -261zM323 -68l-89 -142h-82l67 142h104z" />
    <glyph glyph-name="kgreenlandic" unicode="&#x138;" horiz-adv-x="522" 
d="M507 0h-119l-222 273v-273h-89v550h89v-248l221 248h116l-238 -261z" />
    <glyph glyph-name="Lacute" unicode="&#x139;" horiz-adv-x="542" 
d="M517 0h-432v743h92v-662h340v-81zM476 943l-150 -154h-90l131 154h109z" />
    <glyph glyph-name="lacute" unicode="&#x13a;" horiz-adv-x="255" 
d="M172 0h-89v774h89v-774zM303 943l-150 -154h-90l131 154h109z" />
    <glyph glyph-name="Lcommaaccent" unicode="&#x13b;" horiz-adv-x="542" 
d="M517 0h-432v743h92v-662h340v-81zM365 -68l-89 -142h-82l67 142h104z" />
    <glyph glyph-name="lcommaaccent" unicode="&#x13c;" horiz-adv-x="255" 
d="M172 0h-89v774h89v-774zM179 -68l-89 -142h-82l67 142h104z" />
    <glyph glyph-name="Lcaron" unicode="&#x13d;" horiz-adv-x="542" 
d="M517 0h-432v743h92v-662h340v-81zM449 773l-74 -229h-69l48 229h95z" />
    <glyph glyph-name="lcaron" unicode="&#x13e;" horiz-adv-x="368" 
d="M172 0h-89v774h89v-774zM388 774l-74 -229h-69l48 229h95z" />
    <glyph glyph-name="Ldot" unicode="&#x13f;" horiz-adv-x="542" 
d="M517 0h-432v743h92v-662h340v-81zM390 348h-91v138h91v-138z" />
    <glyph glyph-name="ldot" unicode="&#x140;" horiz-adv-x="370" 
d="M172 0h-89v774h89v-774zM350 300h-91v138h91v-138z" />
    <glyph glyph-name="Lslash" unicode="&#x141;" horiz-adv-x="561" 
d="M19 199v108l85 81v355h92v-262l104 104v-108l-104 -104v-292h340v-81h-432v282z" />
    <glyph glyph-name="lslash" unicode="&#x142;" horiz-adv-x="255" 
d="M173 0h-90v296l-64 -62v109l64 62v369h90v-278l62 60v-109l-62 -60v-387z" />
    <glyph glyph-name="Nacute" unicode="&#x143;" horiz-adv-x="706" 
d="M621 0h-131l-262 533q-50 102 -60 126h-2q5 -82 5 -155v-504h-86v743h132l259 -519q29 -57 60 -127h2q-5 74 -5 163v483h88v-743zM536 943l-150 -154h-90l131 154h109z" />
    <glyph glyph-name="nacute" unicode="&#x144;" horiz-adv-x="596" 
d="M521 0h-90v351q0 78 -18.5 107t-73.5 29q-61 0 -173 -49v-438h-89v550h89v-43q111 57 183 57q103 0 137.5 -51t34.5 -162v-351zM486 770l-150 -154h-90l131 154h109z" />
    <glyph glyph-name="Ncommaaccent" unicode="&#x145;" horiz-adv-x="706" 
d="M621 0h-131l-262 533q-50 102 -60 126h-2q5 -82 5 -155v-504h-86v743h132l259 -519q29 -57 60 -127h2q-5 74 -5 163v483h88v-743zM420 -68l-89 -142h-82l67 142h104z" />
    <glyph glyph-name="ncommaaccent" unicode="&#x146;" horiz-adv-x="596" 
d="M521 0h-90v351q0 78 -18.5 107t-73.5 29q-61 0 -173 -49v-438h-89v550h89v-43q111 57 183 57q103 0 137.5 -51t34.5 -162v-351zM353 -68l-89 -142h-82l67 142h104z" />
    <glyph glyph-name="Ncaron" unicode="&#x147;" horiz-adv-x="706" 
d="M621 0h-131l-262 533q-50 102 -60 126h-2q5 -82 5 -155v-504h-86v743h132l259 -519q29 -57 60 -127h2q-5 74 -5 163v483h88v-743zM158 943h90l104 -106l105 106h90l-135 -154h-119z" />
    <glyph glyph-name="ncaron" unicode="&#x148;" horiz-adv-x="596" 
d="M521 0h-90v351q0 78 -18.5 107t-73.5 29q-61 0 -173 -49v-438h-89v550h89v-43q111 57 183 57q103 0 137.5 -51t34.5 -162v-351zM111 770h90l104 -106l105 106h90l-135 -154h-119z" />
    <glyph glyph-name="napostrophe" unicode="&#x149;" horiz-adv-x="656" 
d="M580 0h-90v351q0 78 -18.5 107t-73.5 29q-61 0 -173 -49v-438h-89v550h89v-43q111 57 183 57q103 0 137.5 -51t34.5 -162v-351zM139 774l-74 -229h-69l48 229h95z" />
    <glyph glyph-name="Eng" unicode="&#x14a;" horiz-adv-x="706" 
d="M621 -60q0 -84 -34 -121.5t-120 -37.5q-48 0 -74 8v69h69q43 0 55 17t12 65v60l-301 533q-31 55 -60 126h-2q5 -82 5 -155v-504h-86v743h122l259 -456q45 -80 70 -147h2q-5 74 -5 183v420h88v-803z" />
    <glyph glyph-name="eng" unicode="&#x14b;" horiz-adv-x="596" 
d="M77 550h89v-43q111 57 184 57q102 0 136.5 -51t34.5 -162v-416q0 -85 -30.5 -120.5t-104.5 -35.5q-40 0 -71 7v65q26 -2 59 -2q36 0 46.5 17.5t10.5 68.5v416q0 78 -18 107t-73 29q-63 0 -173 -49v-438h-90v550z" />
    <glyph glyph-name="Omacron" unicode="&#x14c;" horiz-adv-x="684" 
d="M629 318q0 -159 -74.5 -245.5t-212.5 -86.5t-212.5 86.5t-74.5 245.5v106q0 159 74 245t213 86t213 -86t74 -245v-106zM536 318v106q0 249 -194 249t-194 -249v-106q0 -250 194 -250t194 250zM513 824h-343v70h343v-70z" />
    <glyph glyph-name="omacron" unicode="&#x14d;" horiz-adv-x="579" 
d="M524 235q0 -121 -59.5 -185t-175.5 -64q-115 0 -174.5 64t-59.5 185v80q0 121 59.5 185t174.5 64q116 0 175.5 -64t59.5 -185v-80zM434 235v80q0 89 -34.5 129.5t-110.5 40.5q-75 0 -109.5 -40.5t-34.5 -129.5v-80q0 -89 34.5 -129.5t109.5 -40.5q76 0 110.5 40.5
t34.5 129.5zM461 655h-343v70h343v-70z" />
    <glyph glyph-name="Obreve" unicode="&#x14e;" horiz-adv-x="684" 
d="M629 318q0 -159 -74.5 -245.5t-212.5 -86.5t-212.5 86.5t-74.5 245.5v106q0 159 74 245t213 86t213 -86t74 -245v-106zM536 318v106q0 249 -194 249t-194 -249v-106q0 -250 194 -250t194 250zM510 943q-13 -155 -169 -155q-157 0 -168 155h67q5 -52 29 -73.5t72 -21.5
t72 21.5t30 73.5h67z" />
    <glyph glyph-name="obreve" unicode="&#x14f;" horiz-adv-x="579" 
d="M524 235q0 -121 -59.5 -185t-175.5 -64q-115 0 -174.5 64t-59.5 185v80q0 121 59.5 185t174.5 64q116 0 175.5 -64t59.5 -185v-80zM434 235v80q0 89 -34.5 129.5t-110.5 40.5q-75 0 -109.5 -40.5t-34.5 -129.5v-80q0 -89 34.5 -129.5t109.5 -40.5q76 0 110.5 40.5
t34.5 129.5zM458 770q-13 -155 -169 -155q-157 0 -168 155h67q5 -52 29 -73.5t72 -21.5t72 21.5t30 73.5h67z" />
    <glyph glyph-name="Ohungarumlaut" unicode="&#x150;" horiz-adv-x="684" 
d="M629 318q0 -159 -74.5 -245.5t-212.5 -86.5t-212.5 86.5t-74.5 245.5v106q0 159 74 245t213 86t213 -86t74 -245v-106zM536 318v106q0 249 -194 249t-194 -249v-106q0 -250 194 -250t194 250zM632 942l-150 -154h-91l132 154h109zM310 942h110l-150 -154h-91z" />
    <glyph glyph-name="ohungarumlaut" unicode="&#x151;" horiz-adv-x="579" 
d="M524 235q0 -121 -59.5 -185t-175.5 -64q-115 0 -174.5 64t-59.5 185v80q0 121 59.5 185t174.5 64q116 0 175.5 -64t59.5 -185v-80zM434 235v80q0 89 -34.5 129.5t-110.5 40.5q-75 0 -109.5 -40.5t-34.5 -129.5v-80q0 -89 34.5 -129.5t109.5 -40.5q76 0 110.5 40.5
t34.5 129.5zM586 770l-150 -154h-91l132 154h109zM264 770h110l-150 -154h-91z" />
    <glyph glyph-name="OE" unicode="&#x152;" horiz-adv-x="962" 
d="M907 81v-81h-422q-98 -14 -138 -14q-144 0 -218 86t-74 246v106q0 160 74 245.5t217 85.5q60 0 139 -12h422v-82h-348v-234h327v-83h-327v-263h348zM467 78v584q-72 11 -120 11q-199 0 -199 -249v-106q0 -250 199 -250q51 0 120 10z" />
    <glyph glyph-name="oe" unicode="&#x153;" horiz-adv-x="958" 
d="M903 242h-379v-11q0 -33 2.5 -54t11.5 -45.5t26.5 -38t49 -22.5t76.5 -9q89 0 192 18v-72q-84 -22 -195 -22q-152 0 -210 78q-59 -78 -188 -78q-115 0 -174.5 64t-59.5 185v80q0 121 59.5 185t174.5 64q131 0 191 -81q58 81 187 81q119 0 177.5 -70.5t58.5 -203.5v-48z
M810 316v10q0 161 -142 161q-140 0 -143 -145v-26h285zM434 235v80q0 89 -34.5 130.5t-110.5 41.5q-74 0 -109 -41.5t-35 -130.5v-80q0 -89 34.5 -130t109.5 -41q76 0 110.5 41t34.5 130z" />
    <glyph glyph-name="Racute" unicode="&#x154;" horiz-adv-x="637" 
d="M617 0h-109l-175 290q-20 -1 -70 -1h-86v-289h-92v743h175q56 0 99 -5t84 -19.5t68 -38.5t43 -63.5t16 -93.5v-7q0 -159 -139 -207zM477 516v7q0 83 -50 110.5t-167 27.5h-83v-291h86q114 0 164 31t50 115zM478 943l-150 -154h-90l131 154h109z" />
    <glyph glyph-name="racute" unicode="&#x155;" horiz-adv-x="376" 
d="M361 484q-54 0 -108.5 -13.5t-86.5 -33.5v-437h-89v550h88v-44q74 58 196 58v-80zM408 770l-150 -154h-90l131 154h109z" />
    <glyph glyph-name="Rcommaaccent" unicode="&#x156;" horiz-adv-x="637" 
d="M617 0h-109l-175 290q-20 -1 -70 -1h-86v-289h-92v743h175q56 0 99 -5t84 -19.5t68 -38.5t43 -63.5t16 -93.5v-7q0 -159 -139 -207zM477 516v7q0 83 -50 110.5t-167 27.5h-83v-291h86q114 0 164 31t50 115zM392 -68l-89 -142h-82l67 142h104z" />
    <glyph glyph-name="rcommaaccent" unicode="&#x157;" horiz-adv-x="376" 
d="M361 484q-54 0 -108.5 -13.5t-86.5 -33.5v-437h-89v550h88v-44q74 58 196 58v-80zM255 -68l-89 -142h-82l67 142h104z" />
    <glyph glyph-name="Rcaron" unicode="&#x158;" horiz-adv-x="637" 
d="M617 0h-109l-175 290q-20 -1 -70 -1h-86v-289h-92v743h175q56 0 99 -5t84 -19.5t68 -38.5t43 -63.5t16 -93.5v-7q0 -159 -139 -207zM477 516v7q0 83 -50 110.5t-167 27.5h-83v-291h86q114 0 164 31t50 115zM124 942h90l104 -106l105 106h90l-135 -154h-119z" />
    <glyph glyph-name="rcaron" unicode="&#x159;" horiz-adv-x="376" 
d="M361 484q-54 0 -108.5 -13.5t-86.5 -33.5v-437h-89v550h88v-44q74 58 196 58v-80zM25 770h90l104 -106l105 106h90l-135 -154h-119z" />
    <glyph glyph-name="Sacute" unicode="&#x15a;" horiz-adv-x="585" 
d="M530 188q0 -98 -62 -150t-184 -52q-131 0 -212 21v72q110 -13 212 -13q77 0 114.5 29t37.5 93q0 46 -21.5 74.5t-79.5 54.5l-127 57q-78 35 -115.5 81t-37.5 120q0 180 243 180q128 0 205 -20v-73q-117 13 -202 13q-78 0 -115.5 -22.5t-37.5 -77.5q0 -44 21 -71t79 -53
l128 -56q80 -36 117 -83.5t37 -123.5zM473 943l-150 -154h-90l131 154h109z" />
    <glyph glyph-name="sacute" unicode="&#x15b;" horiz-adv-x="482" 
d="M442 139q0 -153 -205 -153q-51 0 -106 8t-74 14v69q4 0 41.5 -4.5t72 -7t63.5 -2.5q67 0 92.5 18t25.5 56q0 37 -20 55.5t-91 48.5l-40 17q-81 34 -116 72.5t-35 96.5q0 70 48 103.5t151 33.5q109 0 166 -20v-67q-97 10 -162 10q-63 0 -88 -12t-25 -48q0 -32 19 -51
t77 -44l40 -17q98 -44 132 -79t34 -97zM435 770l-150 -154h-90l131 154h109z" />
    <glyph glyph-name="Scircumflex" unicode="&#x15c;" horiz-adv-x="585" 
d="M530 188q0 -98 -62 -150t-184 -52q-131 0 -212 21v72q110 -13 212 -13q77 0 114.5 29t37.5 93q0 46 -21.5 74.5t-79.5 54.5l-127 57q-78 35 -115.5 81t-37.5 120q0 180 243 180q128 0 205 -20v-73q-117 13 -202 13q-78 0 -115.5 -22.5t-37.5 -77.5q0 -44 21 -71t79 -53
l128 -56q80 -36 117 -83.5t37 -123.5zM477 789h-90l-105 105l-104 -105h-90l135 154h119z" />
    <glyph glyph-name="scircumflex" unicode="&#x15d;" horiz-adv-x="482" 
d="M442 139q0 -153 -205 -153q-51 0 -106 8t-74 14v69q4 0 41.5 -4.5t72 -7t63.5 -2.5q67 0 92.5 18t25.5 56q0 37 -20 55.5t-91 48.5l-40 17q-81 34 -116 72.5t-35 96.5q0 70 48 103.5t151 33.5q109 0 166 -20v-67q-97 10 -162 10q-63 0 -88 -12t-25 -48q0 -32 19 -51
t77 -44l40 -17q98 -44 132 -79t34 -97zM433 616h-90l-105 105l-104 -105h-90l135 154h119z" />
    <glyph glyph-name="Scedilla" unicode="&#x15e;" horiz-adv-x="585" 
d="M530 188q0 -98 -62 -150t-184 -52q-131 0 -212 21v72q110 -13 212 -13q77 0 114.5 29t37.5 93q0 46 -21.5 74.5t-79.5 54.5l-127 57q-78 35 -115.5 81t-37.5 120q0 180 243 180q128 0 205 -20v-73q-117 13 -202 13q-78 0 -115.5 -22.5t-37.5 -77.5q0 -44 21 -71t79 -53
l128 -56q80 -36 117 -83.5t37 -123.5zM370 -68l-136 -142h-92l116 142h112z" />
    <glyph glyph-name="scedilla" unicode="&#x15f;" horiz-adv-x="482" 
d="M442 139q0 -153 -205 -153q-51 0 -106 8t-74 14v69q4 0 41.5 -4.5t72 -7t63.5 -2.5q67 0 92.5 18t25.5 56q0 37 -20 55.5t-91 48.5l-40 17q-81 34 -116 72.5t-35 96.5q0 70 48 103.5t151 33.5q109 0 166 -20v-67q-97 10 -162 10q-63 0 -88 -12t-25 -48q0 -32 19 -51
t77 -44l40 -17q98 -44 132 -79t34 -97zM325 -68l-136 -142h-92l116 142h112z" />
    <glyph glyph-name="Scaron" unicode="&#x160;" horiz-adv-x="585" 
d="M530 188q0 -98 -62 -150t-184 -52q-131 0 -212 21v72q110 -13 212 -13q77 0 114.5 29t37.5 93q0 46 -21.5 74.5t-79.5 54.5l-127 57q-78 35 -115.5 81t-37.5 120q0 180 243 180q128 0 205 -20v-73q-117 13 -202 13q-78 0 -115.5 -22.5t-37.5 -77.5q0 -44 21 -71t79 -53
l128 -56q80 -36 117 -83.5t37 -123.5zM98 942h90l104 -106l105 106h90l-135 -154h-119z" />
    <glyph glyph-name="scaron" unicode="&#x161;" horiz-adv-x="482" 
d="M442 139q0 -153 -205 -153q-51 0 -106 8t-74 14v69q4 0 41.5 -4.5t72 -7t63.5 -2.5q67 0 92.5 18t25.5 56q0 37 -20 55.5t-91 48.5l-40 17q-81 34 -116 72.5t-35 96.5q0 70 48 103.5t151 33.5q109 0 166 -20v-67q-97 10 -162 10q-63 0 -88 -12t-25 -48q0 -32 19 -51
t77 -44l40 -17q98 -44 132 -79t34 -97zM51 770h90l104 -106l105 106h90l-135 -154h-119z" />
    <glyph glyph-name="Tcedilla" unicode="&#x162;" horiz-adv-x="610" 
d="M580 661h-229v-661h-92v661h-229v82h550v-82zM361 -68l-89 -142h-82l67 142h104z" />
    <glyph glyph-name="tcedilla" unicode="&#x163;" horiz-adv-x="403" 
d="M373 1q-45 -15 -101 -15q-75 0 -105.5 31t-30.5 109v349l-111 8v67h111v143h90v-143h147v-75h-147v-345q0 -47 9 -59.5t47 -12.5q48 0 91 5v-62zM303 -68l-89 -142h-82l67 142h104z" />
    <glyph glyph-name="Tcaron" unicode="&#x164;" horiz-adv-x="610" 
d="M580 661h-229v-661h-92v661h-229v82h550v-82zM110 942h90l104 -106l105 106h90l-135 -154h-119z" />
    <glyph glyph-name="tcaron" unicode="&#x165;" horiz-adv-x="403" 
d="M373 1q-45 -15 -101 -15q-75 0 -105.5 31t-30.5 109v349l-111 8v67h111v143h90v-143h147v-75h-147v-345q0 -47 9 -59.5t47 -12.5q48 0 91 5v-62zM412 774l-61 -161h-69l35 161h95z" />
    <glyph glyph-name="Tbar" unicode="&#x166;" horiz-adv-x="610" 
d="M580 661h-229v-196h205v-81h-205v-384h-92v384h-204v81h204v196h-229v82h550v-82z" />
    <glyph glyph-name="tbar" unicode="&#x167;" horiz-adv-x="403" 
d="M372 321h-147v-191q0 -47 9.5 -59t47.5 -12t90 4v-62q-39 -14 -101 -14q-75 0 -105 30.5t-30 108.5v195l-111 10v65h111v79l-111 8v67h111v143h89v-143h147v-75h-147v-79h147v-75z" />
    <glyph glyph-name="Utilde" unicode="&#x168;" horiz-adv-x="699" 
d="M619 309q0 -323 -269 -323q-270 0 -270 323v434h92v-424q0 -137 39 -193.5t139 -56.5t139 57t39 193v424h91v-434zM551 906q0 -60 -22 -92t-75 -32q-50 0 -102 41l-41 33q-32 28 -57 28q-20 0 -27.5 -15t-7.5 -46v-34h-65v34q0 124 100 124q49 0 97 -38l42 -34
q36 -29 59 -29q21 0 28 14t7 46v34h64v-34z" />
    <glyph glyph-name="utilde" unicode="&#x169;" horiz-adv-x="596" 
d="M519 0h-90v43q-112 -57 -191 -57q-94 0 -128.5 55.5t-34.5 157.5v351h89v-351q0 -78 18.5 -107t74.5 -29q60 0 172 49v438h90v-550zM498 736q0 -60 -22 -92t-75 -32q-50 0 -102 41l-41 33q-32 28 -57 28q-20 0 -27.5 -15t-7.5 -46v-34h-65v34q0 124 100 124q49 0 97 -38
l42 -34q36 -29 59 -29q21 0 28 14t7 46v34h64v-34z" />
    <glyph glyph-name="Umacron" unicode="&#x16a;" horiz-adv-x="699" 
d="M619 309q0 -323 -269 -323q-270 0 -270 323v434h92v-424q0 -137 39 -193.5t139 -56.5t139 57t39 193v424h91v-434zM521 824h-343v70h343v-70z" />
    <glyph glyph-name="umacron" unicode="&#x16b;" horiz-adv-x="596" 
d="M519 0h-90v43q-112 -57 -191 -57q-94 0 -128.5 55.5t-34.5 157.5v351h89v-351q0 -78 18.5 -107t74.5 -29q60 0 172 49v438h90v-550zM471 655h-343v70h343v-70z" />
    <glyph glyph-name="Ubreve" unicode="&#x16c;" horiz-adv-x="699" 
d="M619 309q0 -323 -269 -323q-270 0 -270 323v434h92v-424q0 -137 39 -193.5t139 -56.5t139 57t39 193v424h91v-434zM518 934q-13 -155 -169 -155q-157 0 -168 155h67q5 -52 29 -73.5t72 -21.5t72 21.5t30 73.5h67z" />
    <glyph glyph-name="ubreve" unicode="&#x16d;" horiz-adv-x="596" 
d="M519 0h-90v43q-112 -57 -191 -57q-94 0 -128.5 55.5t-34.5 157.5v351h89v-351q0 -78 18.5 -107t74.5 -29q60 0 172 49v438h90v-550zM468 770q-13 -155 -169 -155q-157 0 -168 155h67q5 -52 29 -73.5t72 -21.5t72 21.5t30 73.5h67z" />
    <glyph glyph-name="Uring" unicode="&#x16e;" horiz-adv-x="699" 
d="M619 309q0 -323 -269 -323q-270 0 -270 323v434h92v-424q0 -137 39 -193.5t139 -56.5t139 57t39 193v424h91v-434zM466 879q0 -55 -31.5 -82t-83.5 -27q-53 0 -85.5 27t-32.5 82t32.5 82t85.5 27q52 0 83.5 -27t31.5 -82zM406 879q0 55 -55 55q-56 0 -56 -55t56 -55
q55 0 55 55z" />
    <glyph glyph-name="uring" unicode="&#x16f;" horiz-adv-x="596" 
d="M519 0h-90v43q-112 -57 -191 -57q-94 0 -128.5 55.5t-34.5 157.5v351h89v-351q0 -78 18.5 -107t74.5 -29q60 0 172 49v438h90v-550zM418 715q0 -55 -31.5 -82t-83.5 -27q-53 0 -85.5 27t-32.5 82t32.5 82t85.5 27q52 0 83.5 -27t31.5 -82zM358 715q0 55 -55 55
q-56 0 -56 -55t56 -55q55 0 55 55z" />
    <glyph glyph-name="Uhungarumlaut" unicode="&#x170;" horiz-adv-x="699" 
d="M619 309q0 -323 -269 -323q-270 0 -270 323v434h92v-424q0 -137 39 -193.5t139 -56.5t139 57t39 193v424h91v-434zM642 943l-150 -154h-91l132 154h109zM320 943h110l-150 -154h-91z" />
    <glyph glyph-name="uhungarumlaut" unicode="&#x171;" horiz-adv-x="596" 
d="M519 0h-90v43q-112 -57 -191 -57q-94 0 -128.5 55.5t-34.5 157.5v351h89v-351q0 -78 18.5 -107t74.5 -29q60 0 172 49v438h90v-550zM596 770l-150 -154h-91l132 154h109zM274 770h110l-150 -154h-91z" />
    <glyph glyph-name="Uogonek" unicode="&#x172;" horiz-adv-x="699" 
d="M528 743h91v-434q0 -221 -130 -293q-85 -47 -111 -76t-26 -56q0 -44 60 -44q41 0 77 4v-50q-37 -11 -87 -11q-126 0 -126 96q0 54 67 107q-263 5 -263 323v434h92v-424q0 -137 39 -193.5t139 -56.5t139 57t39 193v424z" />
    <glyph glyph-name="uogonek" unicode="&#x173;" horiz-adv-x="596" 
d="M519 -207q-27 -10 -85 -10q-62 0 -94.5 26t-32.5 73q0 34 32.5 68t89.5 60v33q-112 -57 -191 -57q-94 0 -128.5 55.5t-34.5 157.5v351h89v-351q0 -78 18.5 -107t74.5 -29q60 0 172 49v438h90v-550q-82 -37 -109 -63.5t-27 -50.5q0 -46 59 -46q10 0 77 5v-52z" />
    <glyph glyph-name="Wcircumflex" unicode="&#x174;" horiz-adv-x="900" 
d="M855 743l-134 -743h-147l-101 460q-3 16 -10 47.5t-11 47.5h-3q-3 -16 -10 -47.5t-11 -47.5l-100 -460h-149l-134 743h98l87 -522q4 -24 12 -74t12 -74h5q5 25 16 74t16 73l89 413h144l90 -416q5 -24 15.5 -72t15.5 -72h5q9 65 23 148l88 522h94zM646 789h-90l-105 105
l-104 -105h-90l135 154h119z" />
    <glyph glyph-name="wcircumflex" unicode="&#x175;" horiz-adv-x="831" 
d="M801 550l-124 -550h-130l-99 330q-21 69 -30 111h-4q-9 -42 -30 -111l-99 -330h-130l-125 550h92l73 -340q19 -89 22 -142h5q6 22 18.5 70t19.5 71l86 296h140l86 -296q7 -23 19.5 -71t18.5 -70h5q3 53 22 142l73 340h91zM610 616h-90l-105 105l-104 -105h-90l135 154
h119z" />
    <glyph glyph-name="Ycircumflex" unicode="&#x176;" horiz-adv-x="627" 
d="M607 743l-248 -449v-294h-91v294l-248 449h101l135 -245q40 -73 57 -118h6q9 23 60 118l134 245h94zM511 789h-90l-105 105l-104 -105h-90l135 154h119z" />
    <glyph glyph-name="ycircumflex" unicode="&#x177;" horiz-adv-x="547" 
d="M524 550l-209 -599q-16 -45 -29 -72.5t-34 -53t-51 -37t-71 -11.5q-60 0 -107 10v69q57 -4 104 -4q38 0 56.5 21.5t42.5 86.5l15 40l-213 550h99l112 -309q20 -58 44 -146h2q17 73 42 147l101 308h96zM476 616h-90l-105 105l-104 -105h-90l135 154h119z" />
    <glyph glyph-name="Ydieresis" unicode="&#x178;" horiz-adv-x="627" 
d="M607 743l-248 -449v-294h-91v294l-248 449h101l135 -245q40 -73 57 -118h6q9 23 60 118l134 245h94zM471 809h-81v118h81v-118zM243 927v-118h-82v118h82z" />
    <glyph glyph-name="Zacute" unicode="&#x179;" horiz-adv-x="624" 
d="M569 0h-514v102l401 559h-386v82h485v-101l-400 -561h414v-81zM506 943l-150 -154h-90l131 154h109z" />
    <glyph glyph-name="zacute" unicode="&#x17a;" horiz-adv-x="488" 
d="M443 0h-403v101l306 374h-293v75h389v-93l-311 -383h312v-74zM443 770l-150 -154h-90l131 154h109z" />
    <glyph glyph-name="Zdotaccent" unicode="&#x17b;" horiz-adv-x="624" 
d="M569 0h-514v102l401 559h-386v82h485v-101l-400 -561h414v-81zM356 809h-89v120h89v-120z" />
    <glyph glyph-name="zdotaccent" unicode="&#x17c;" horiz-adv-x="488" 
d="M443 0h-403v101l306 374h-293v75h389v-93l-311 -383h312v-74zM299 651h-89v120h89v-120z" />
    <glyph glyph-name="Zcaron" unicode="&#x17d;" horiz-adv-x="624" 
d="M569 0h-514v102l401 559h-386v82h485v-101l-400 -561h414v-81zM130 943h90l104 -106l105 106h90l-135 -154h-119z" />
    <glyph glyph-name="zcaron" unicode="&#x17e;" horiz-adv-x="488" 
d="M443 0h-403v101l306 374h-293v75h389v-93l-311 -383h312v-74zM65 770h90l104 -106l105 106h90l-135 -154h-119z" />
    <glyph glyph-name="florin" unicode="&#x192;" horiz-adv-x="638" 
d="M579 743l-8 -63q-50 5 -75 5q-43 0 -62.5 -17.5t-27.5 -74.5l-23 -164h173l-11 -75h-175l-47 -337q-12 -87 -53 -121t-109 -34q-53 0 -101 12l9 63q45 -5 79 -5q38 0 58 17t28 74l47 331h-156l11 75h157l24 170q13 88 53.5 122t113.5 34q49 0 95 -12z" />
    <glyph glyph-name="Aringacute" unicode="&#x1fa;" horiz-adv-x="663" 
d="M638 0h-98l-77 243h-266l-79 -243h-93l243 743h127zM435 327l-70 217q-18 55 -30 122h-10q-16 -80 -30 -122l-71 -217h211zM448 863q0 -55 -31.5 -82t-83.5 -27q-53 0 -85.5 27t-32.5 82t32.5 82t85.5 27q52 0 83.5 -27t31.5 -82zM388 863q0 55 -55 55q-56 0 -56 -55
t56 -55q55 0 55 55zM370 985h-90l131 154h109z" />
    <glyph glyph-name="aringacute" unicode="&#x1fb;" horiz-adv-x="545" 
d="M475 0h-86v37q-73 -51 -175 -51q-164 0 -164 156v20q0 101 62 135.5t191 34.5h82v40q0 72 -23.5 94t-105.5 22q-67 0 -170 -12v64q18 7 69.5 15.5t107.5 8.5q67 0 110 -11.5t65 -38t29.5 -59t7.5 -83.5v-372zM385 100v164h-82q-92 0 -127.5 -19.5t-35.5 -82.5v-27
q0 -44 24 -61.5t68 -17.5q43 0 86.5 14.5t66.5 29.5zM402 697q0 -55 -31.5 -82t-83.5 -27q-53 0 -85.5 27t-32.5 82t32.5 82t85.5 27q52 0 83.5 -27t31.5 -82zM342 697q0 55 -55 55q-56 0 -56 -55t56 -55q55 0 55 55zM478 978l-150 -154h-90l131 154h109z" />
    <glyph glyph-name="AEacute" unicode="&#x1fc;" horiz-adv-x="964" 
d="M129 0h-94l240 743h634v-82h-348v-234h328v-83h-328v-263h348v-81h-439v243h-264zM470 325v337h-132q-2 -8 -14 -49t-19 -63l-72 -225h237zM756 943l-150 -154h-90l131 154h109z" />
    <glyph glyph-name="aeacute" unicode="&#x1fd;" horiz-adv-x="909" 
d="M834 8q-86 -22 -195 -22q-148 0 -205 68q-101 -68 -220 -68q-164 0 -164 156v20q0 101 62 135.5t191 34.5h82v40q0 72 -23.5 94t-105.5 22q-67 0 -170 -12v64q18 7 69.5 15.5t107.5 8.5q82 0 122.5 -15t61.5 -47q59 61 172 61q235 0 235 -273v-48h-378v-11
q0 -42 4.5 -67.5t20 -51.5t50 -38t90.5 -12q90 0 193 18v-72zM762 316v10q0 160 -143 160q-142 0 -142 -160v-10h285zM385 100v164h-82q-92 0 -127.5 -19.5t-35.5 -82.5v-27q0 -44 24 -61.5t68 -17.5q43 0 86.5 14.5t66.5 29.5zM649 770l-150 -154h-90l131 154h109z" />
    <glyph glyph-name="Oslashacute" unicode="&#x1fe;" horiz-adv-x="684" 
d="M629 318q0 -159 -74.5 -245.5t-212.5 -86.5q-115 0 -186 59l-32 -45h-95l76 106q-50 82 -50 212v106q0 159 74 245t213 86q112 0 185 -59l33 46h95l-76 -106q50 -82 50 -212v-106zM536 318v106q0 76 -18 127l-310 -433q49 -50 134 -50q194 0 194 250zM475 623
q-49 50 -133 50q-194 0 -194 -249v-106q0 -76 18 -127zM501 943l-150 -154h-90l131 154h109z" />
    <glyph glyph-name="oslashacute" unicode="&#x1ff;" horiz-adv-x="579" 
d="M469 770l-150 -154h-90l131 154h109zM524 235q0 -121 -59.5 -185t-175.5 -64q-83 0 -139 34l-34 -44h-93l73 96q-41 62 -41 163v80q0 121 59.5 185t174.5 64q91 0 150 -42l40 52h93l-83 -108q35 -61 35 -151v-80zM434 235v80q0 34 -7 69l-227 -297q34 -22 89 -22
q75 0 110 40.5t35 129.5zM388 455q-34 30 -99 30q-75 0 -109.5 -40.5t-34.5 -129.5v-80q0 -52 10 -85z" />
    <glyph glyph-name="Scommaaccent" unicode="&#x218;" horiz-adv-x="585" 
d="M530 188q0 -98 -62 -150t-184 -52q-131 0 -212 21v72q110 -13 212 -13q77 0 114.5 29t37.5 93q0 46 -21.5 74.5t-79.5 54.5l-127 57q-78 35 -115.5 81t-37.5 120q0 180 243 180q128 0 205 -20v-73q-117 13 -202 13q-78 0 -115.5 -22.5t-37.5 -77.5q0 -44 21 -71t79 -53
l128 -56q80 -36 117 -83.5t37 -123.5zM354 -68l-89 -142h-82l67 142h104z" />
    <glyph glyph-name="scommaaccent" unicode="&#x219;" horiz-adv-x="482" 
d="M442 139q0 -153 -205 -153q-51 0 -106 8t-74 14v69q4 0 41.5 -4.5t72 -7t63.5 -2.5q67 0 92.5 18t25.5 56q0 37 -20 55.5t-91 48.5l-40 17q-81 34 -116 72.5t-35 96.5q0 70 48 103.5t151 33.5q109 0 166 -20v-67q-97 10 -162 10q-63 0 -88 -12t-25 -48q0 -32 19 -51
t77 -44l40 -17q98 -44 132 -79t34 -97zM298 -68l-89 -142h-82l67 142h104z" />
    <glyph glyph-name="Tcommaaccent" unicode="&#x21a;" horiz-adv-x="610" 
d="M580 661h-229v-661h-92v661h-229v82h550v-82zM361 -68l-89 -142h-82l67 142h104z" />
    <glyph glyph-name="tcommaaccent" unicode="&#x21b;" horiz-adv-x="403" 
d="M373 1q-45 -15 -101 -15q-75 0 -105.5 31t-30.5 109v349l-111 8v67h111v143h90v-143h147v-75h-147v-345q0 -47 9 -59.5t47 -12.5q48 0 91 5v-62zM303 -68l-89 -142h-82l67 142h104z" />
    <glyph glyph-name="circumflex" unicode="&#x2c6;" 
d="M423 616h-90l-105 105l-104 -105h-90l135 154h119z" />
    <glyph glyph-name="caron" unicode="&#x2c7;" 
d="M34 770h90l104 -106l105 106h90l-135 -154h-119z" />
    <glyph glyph-name="uni02C9" unicode="&#x2c9;" 
d="M400 655h-343v70h343v-70z" />
    <glyph glyph-name="breve" unicode="&#x2d8;" 
d="M397 770q-13 -155 -169 -155q-157 0 -168 155h67q5 -52 29 -73.5t72 -21.5t72 21.5t30 73.5h67z" />
    <glyph glyph-name="dotaccent" unicode="&#x2d9;" 
d="M273 651h-89v120h89v-120z" />
    <glyph glyph-name="ring" unicode="&#x2da;" 
d="M345 715q0 -55 -31.5 -82t-83.5 -27q-53 0 -85.5 27t-32.5 82t32.5 82t85.5 27q52 0 83.5 -27t31.5 -82zM285 715q0 55 -55 55q-56 0 -56 -55t56 -55q55 0 55 55z" />
    <glyph glyph-name="ogonek" unicode="&#x2db;" 
d="M348 -207q-27 -10 -85 -10q-62 0 -94.5 26t-32.5 73q0 36 32.5 71t90.5 60l89 -13q-82 -37 -109 -63.5t-27 -50.5q0 -46 59 -46q9 0 77 5v-52z" />
    <glyph glyph-name="tilde" unicode="&#x2dc;" 
d="M430 736q0 -60 -22 -92t-75 -32q-50 0 -102 41l-41 33q-32 28 -57 28q-20 0 -27.5 -15t-7.5 -46v-34h-65v34q0 124 100 124q49 0 97 -38l42 -34q36 -29 59 -29q21 0 28 14t7 46v34h64v-34z" />
    <glyph glyph-name="hungarumlaut" unicode="&#x2dd;" 
d="M489 767l-150 -154h-91l132 154h109zM167 767h110l-150 -154h-91z" />
    <glyph glyph-name="uni037E" unicode="&#x37e;" horiz-adv-x="240" 
d="M167 249h-90v138h90v-138z" />
    <glyph glyph-name="uni03A9" unicode="&#x3a9;" horiz-adv-x="681" 
d="M626 384q0 -202 -164 -267v-41h159v-76h-244v161q77 19 116.5 76.5t39.5 146.5v73q0 216 -193 216t-193 -216v-73q0 -89 39.5 -146.5t116.5 -76.5v-161h-243v76h158v41q-164 65 -164 267v73q0 144 77 221t209 77q133 0 209.5 -77t76.5 -221v-73z" />
    <glyph glyph-name="uni03BC" unicode="&#x3bc;" horiz-adv-x="645" 
d="M544 0h-90v43q-112 -57 -191 -57q-43 0 -73 12v-208h-90v760h89v-351q0 -78 18.5 -107t74.5 -29q60 0 172 49v438h90v-550z" />
    <glyph glyph-name="pi" unicode="&#x3c0;" horiz-adv-x="632" 
d="M584 -7q-31 -7 -70 -7q-62 0 -86 32.5t-24 100.5v348h-181v-467h-91v467h-91v83h543v-83h-91v-348q0 -35 8 -47t34 -12q31 0 49 1v-68z" />
    <glyph glyph-name="Wgrave" unicode="&#x1e80;" horiz-adv-x="900" 
d="M855 743l-134 -743h-147l-101 460q-3 16 -10 47.5t-11 47.5h-3q-3 -16 -10 -47.5t-11 -47.5l-100 -460h-149l-134 743h98l87 -522q4 -24 12 -74t12 -74h5q5 25 16 74t16 73l89 413h144l90 -416q5 -24 15.5 -72t15.5 -72h5q9 65 23 148l88 522h94zM537 789h-90l-150 154
h109z" />
    <glyph glyph-name="wgrave" unicode="&#x1e81;" horiz-adv-x="831" 
d="M801 550l-124 -550h-130l-99 330q-21 69 -30 111h-4q-9 -42 -30 -111l-99 -330h-130l-125 550h92l73 -340q19 -89 22 -142h5q6 22 18.5 70t19.5 71l86 296h140l86 -296q7 -23 19.5 -71t18.5 -70h5q3 53 22 142l73 340h91zM482 616h-90l-150 154h109z" />
    <glyph glyph-name="Wacute" unicode="&#x1e82;" horiz-adv-x="900" 
d="M855 743l-134 -743h-147l-101 460q-3 16 -10 47.5t-11 47.5h-3q-3 -16 -10 -47.5t-11 -47.5l-100 -460h-149l-134 743h98l87 -522q4 -24 12 -74t12 -74h5q5 25 16 74t16 73l89 413h144l90 -416q5 -24 15.5 -72t15.5 -72h5q9 65 23 148l88 522h94zM633 943l-150 -154h-90
l131 154h109z" />
    <glyph glyph-name="wacute" unicode="&#x1e83;" horiz-adv-x="831" 
d="M801 550l-124 -550h-130l-99 330q-21 69 -30 111h-4q-9 -42 -30 -111l-99 -330h-130l-125 550h92l73 -340q19 -89 22 -142h5q6 22 18.5 70t19.5 71l86 296h140l86 -296q7 -23 19.5 -71t18.5 -70h5q3 53 22 142l73 340h91zM588 770l-150 -154h-90l131 154h109z" />
    <glyph glyph-name="Wdieresis" unicode="&#x1e84;" horiz-adv-x="900" 
d="M855 743l-134 -743h-147l-101 460q-3 16 -10 47.5t-11 47.5h-3q-3 -16 -10 -47.5t-11 -47.5l-100 -460h-149l-134 743h98l87 -522q4 -24 12 -74t12 -74h5q5 25 16 74t16 73l89 413h144l90 -416q5 -24 15.5 -72t15.5 -72h5q9 65 23 148l88 522h94zM606 809h-81v118h81
v-118zM378 927v-118h-82v118h82z" />
    <glyph glyph-name="wdieresis" unicode="&#x1e85;" horiz-adv-x="831" 
d="M801 550l-124 -550h-130l-99 330q-21 69 -30 111h-4q-9 -42 -30 -111l-99 -330h-130l-125 550h92l73 -340q19 -89 22 -142h5q6 22 18.5 70t19.5 71l86 296h140l86 -296q7 -23 19.5 -71t18.5 -70h5q3 53 22 142l73 340h91zM570 643h-81v118h81v-118zM342 761v-118h-82v118
h82z" />
    <glyph glyph-name="Ygrave" unicode="&#x1ef2;" horiz-adv-x="627" 
d="M607 743l-248 -449v-294h-91v294l-248 449h101l135 -245q40 -73 57 -118h6q9 23 60 118l134 245h94zM386 788h-90l-150 154h109z" />
    <glyph glyph-name="ygrave" unicode="&#x1ef3;" horiz-adv-x="547" 
d="M524 550l-209 -599q-16 -45 -29 -72.5t-34 -53t-51 -37t-71 -11.5q-60 0 -107 10v69q57 -4 104 -4q38 0 56.5 21.5t42.5 86.5l15 40l-213 550h99l112 -309q20 -58 44 -146h2q17 73 42 147l101 308h96zM351 616h-90l-150 154h109z" />
    <glyph glyph-name="figuredash" unicode="&#x2012;" horiz-adv-x="716" 
d="M642 255h-568v76h568v-76z" />
    <glyph glyph-name="endash" unicode="&#x2013;" horiz-adv-x="504" 
d="M430 255h-356v76h356v-76z" />
    <glyph glyph-name="emdash" unicode="&#x2014;" horiz-adv-x="643" 
d="M569 255h-495v76h495v-76z" />
    <glyph glyph-name="quoteleft" unicode="&#x2018;" horiz-adv-x="183" 
d="M163 774l-47 -229h-96l75 229h68z" />
    <glyph glyph-name="quoteright" unicode="&#x2019;" horiz-adv-x="183" 
d="M163 774l-74 -229h-69l48 229h95z" />
    <glyph glyph-name="quotesinglbase" unicode="&#x201a;" horiz-adv-x="183" 
d="M163 134l-74 -228h-69l48 228h95z" />
    <glyph glyph-name="quotedblleft" unicode="&#x201c;" horiz-adv-x="366" 
d="M346 774l-48 -229h-95l74 229h69zM94 774h69l-48 -229h-95z" />
    <glyph glyph-name="quotedblright" unicode="&#x201d;" horiz-adv-x="366" 
d="M346 774l-74 -229h-69l48 229h95zM68 774h95l-74 -229h-69z" />
    <glyph glyph-name="quotedblbase" unicode="&#x201e;" horiz-adv-x="366" 
d="M346 134l-74 -228h-69l48 228h95zM68 134h95l-74 -228h-69z" />
    <glyph glyph-name="dagger" unicode="&#x2020;" horiz-adv-x="510" 
d="M433 481h-140v-611h-89v611h-127v79h127v214h89v-214h140v-79z" />
    <glyph glyph-name="daggerdbl" unicode="&#x2021;" horiz-adv-x="510" 
d="M433 268h-140v-398h-89v398h-127v78h127v131h-127v79h127v214h89v-214h140v-79h-140v-131h140v-78z" />
    <glyph glyph-name="bullet" unicode="&#x2022;" horiz-adv-x="533" 
d="M445 369q0 -74 -52.5 -126t-126.5 -52t-126 52.5t-52 125.5q0 74 52 126.5t126 52.5t126.5 -52.5t52.5 -126.5z" />
    <glyph glyph-name="onedotenleader" unicode="&#x2024;" horiz-adv-x="247" 
d="M169 0h-91v138h91v-138z" />
    <glyph glyph-name="twodotenleader" unicode="&#x2025;" horiz-adv-x="458" 
d="M379 0h-90v138h90v-138zM169 138v-138h-91v138h91z" />
    <glyph glyph-name="ellipsis" unicode="&#x2026;" horiz-adv-x="822" 
d="M174 0h-91v138h91v-138zM456 0h-90v138h90v-138zM738 0h-90v138h90v-138z" />
    <glyph glyph-name="perthousand" unicode="&#x2030;" horiz-adv-x="1483" 
d="M1424 194q0 -100 -45.5 -152t-130.5 -52t-130.5 52t-45.5 152v57q0 100 45.5 151.5t130.5 51.5t130.5 -51.5t45.5 -151.5v-57zM1344 194v57q0 75 -25.5 105t-70.5 30t-70.5 -30t-25.5 -105v-57q0 -76 25.5 -106t70.5 -30t70.5 30t25.5 106zM1009 194q0 -100 -45.5 -152
t-130.5 -52t-130.5 52t-45.5 152v57q0 100 45.5 151.5t130.5 51.5t130.5 -51.5t45.5 -151.5v-57zM929 194v57q0 75 -25.5 105t-70.5 30t-70.5 -30t-25.5 -105v-57q0 -76 25.5 -106t70.5 -30t70.5 30t25.5 106zM814 743l-474 -743h-90l474 743h90zM409 494q0 -205 -175 -205
q-92 0 -134 55.5t-42 149.5v55q0 205 176 205q175 0 175 -205v-55zM329 494v55q0 75 -22.5 106t-72.5 31q-49 0 -72.5 -32t-23.5 -105v-55q0 -75 23 -106t73 -31t72.5 31t22.5 106z" />
    <glyph glyph-name="guilsinglleft" unicode="&#x2039;" horiz-adv-x="382" 
d="M325 81h-106l-163 208l163 206h106l-158 -206z" />
    <glyph glyph-name="guilsinglright" unicode="&#x203a;" horiz-adv-x="382" 
d="M326 289l-164 -208h-106l159 208l-159 206h106z" />
    <glyph glyph-name="exclamdbl" unicode="&#x203c;" horiz-adv-x="468" 
d="M380 0h-91v135h91v-135zM383 774l-9 -581h-78l-10 581h97zM178 0h-91v135h91v-135zM181 774l-9 -581h-78l-10 581h97z" />
    <glyph glyph-name="fraction" unicode="&#x2044;" horiz-adv-x="413" 
d="M488 743l-473 -743h-90l473 743h90z" />
    <glyph glyph-name="zero.superior" unicode="&#x2070;" 
d="M407 526q0 -100 -46.5 -151.5t-133.5 -51.5t-133 51.5t-46 151.5v58q0 100 46 151.5t133 51.5t133.5 -51.5t46.5 -151.5v-58zM325 526v58q0 76 -26 106.5t-72 30.5t-71.5 -30.5t-25.5 -106.5v-58q0 -76 25.5 -106t71.5 -30t72 30.5t26 105.5z" />
    <glyph glyph-name="i.superior" unicode="&#x2071;" horiz-adv-x="212" 
d="M67 641h79v-338h-79v338zM147 697h-82v77h82v-77z" />
    <glyph glyph-name="four.superior" unicode="&#x2074;" horiz-adv-x="463" 
d="M351 332h-82v110h-225v66l229 270h78v-275h70v-61h-70v-110zM272 503v181l-153 -181h153z" />
    <glyph glyph-name="five.superior" unicode="&#x2075;" horiz-adv-x="445" 
d="M368 715h-211l-11 -111h61q95 0 136.5 -29.5t41.5 -100.5q0 -82 -55 -116.5t-141 -34.5q-59 0 -128 15v56q84 -10 133 -10q61 0 84.5 19.5t23.5 70.5q0 40 -21.5 54.5t-84.5 14.5h-128l22 235h278v-63z" />
    <glyph glyph-name="six.superior" unicode="&#x2076;" horiz-adv-x="470" 
d="M384 772v-57q-74 9 -137 9q-69 0 -89.5 -25.5t-20.5 -83.5v-15q47 13 103 13q29 0 51 -2.5t45 -10t37.5 -21t24 -36.5t9.5 -55v-19q0 -43 -16 -73t-43 -45t-54.5 -21.5t-57.5 -6.5q-89 0 -134.5 39.5t-45.5 148.5v98q0 91 41 134.5t144 43.5q80 0 143 -15zM325 469v17
q0 44 -22 58t-69 14q-53 0 -97 -11v-45q0 -70 25 -94.5t74 -24.5q39 0 64 21t25 65z" />
    <glyph glyph-name="seven.superior" unicode="&#x2077;" horiz-adv-x="441" 
d="M65 715v63h322v-73l-207 -373h-89l216 383h-242z" />
    <glyph glyph-name="eight.superior" unicode="&#x2078;" horiz-adv-x="482" 
d="M417 461q0 -38 -10.5 -64.5t-26 -40.5t-42 -21.5t-48.5 -9.5t-55 -2t-54 2t-47.5 10t-42 22.5t-26 42t-10.5 66.5q0 66 51 97q-49 32 -49 101q0 38 14.5 64t42 38t56 16.5t67.5 4.5q38 0 66 -4.5t55.5 -16.5t42 -38t14.5 -64q0 -69 -49 -101q51 -31 51 -102zM336 462
q-1 40 -13.5 56.5t-46.5 16.5h-80q-34 0 -47 -17t-13 -56q0 -50 24.5 -65t76.5 -15q51 0 75 15t24 65zM334 662q0 40 -24.5 53t-74.5 13q-48 0 -73 -13.5t-25 -52.5q0 -36 13 -53t46 -17h80q33 0 45.5 17t12.5 53z" />
    <glyph glyph-name="nine.superior" unicode="&#x2079;" horiz-adv-x="470" 
d="M77 338v56q103 -9 138 -9q68 0 89 26t21 84v16q-47 -13 -103 -13q-29 0 -51 2.5t-45 10t-37.5 21t-24 36.5t-9.5 55v19q0 43 16 73t43 45t54.5 21t58.5 6q88 0 133.5 -39t45.5 -148v-98q0 -91 -41.5 -135t-143.5 -44q-65 0 -144 15zM325 563v46q0 70 -24.5 94.5
t-74.5 24.5q-39 0 -64 -21t-25 -65v-17q0 -44 21.5 -58t68.5 -14q53 0 98 10z" />
    <glyph glyph-name="parenleft.superior" unicode="&#x207d;" horiz-adv-x="282" 
d="M235 257h-79q-35 42 -62 109.5t-27 151.5v5q0 84 27 153t62 111h79q-85 -120 -85 -264v-5q0 -142 85 -261z" />
    <glyph glyph-name="parenright.superior" unicode="&#x207e;" horiz-adv-x="282" 
d="M215 518q0 -84 -27 -151.5t-62 -109.5h-79q85 116 85 261v5q0 146 -85 264h79q35 -42 62 -111t27 -153v-5z" />
    <glyph glyph-name="n.superior" unicode="&#x207f;" horiz-adv-x="445" 
d="M380 303h-80v208q0 44 -11 61t-44 17q-36 0 -100 -27v-259h-80v338h78v-24q66 33 119 33q71 0 94.5 -34.5t23.5 -102.5v-210z" />
    <glyph glyph-name="zero.inferior" unicode="&#x2080;" 
d="M407 -20q0 -100 -46.5 -151.5t-133.5 -51.5t-133 51.5t-46 151.5v58q0 100 46 151.5t133 51.5t133.5 -51.5t46.5 -151.5v-58zM325 -20v58q0 76 -26 106.5t-72 30.5t-71.5 -30.5t-25.5 -106.5v-58q0 -76 25.5 -106t71.5 -30t72 30.5t26 105.5z" />
    <glyph glyph-name="one.inferior" unicode="&#x2081;" horiz-adv-x="430" 
d="M366 -214h-290v59l104 3v310l-105 -33v67l128 43h59v-387l104 -3v-59z" />
    <glyph glyph-name="two.inferior" unicode="&#x2082;" horiz-adv-x="445" 
d="M68 172v54q60 15 149 15q84 0 125 -26.5t41 -84.5q0 -46 -27.5 -77.5t-99.5 -66.5q-73 -36 -93.5 -59.5t-20.5 -70.5v-6h235v-64h-316v56q0 75 31 114t115 80q61 30 77.5 47t16.5 45t-21.5 40t-71.5 12q-40 0 -140 -8z" />
    <glyph glyph-name="three.inferior" unicode="&#x2083;" horiz-adv-x="442" 
d="M205 -223q-89 0 -141 15v55q100 -8 135 -8q53 0 76 15t23 58q0 40 -14.5 57t-62.5 17h-136v60h137q47 0 61.5 18t14.5 54q0 34 -21 47.5t-78 13.5q-35 0 -135 -8v55q53 15 141 15q89 0 132 -27t43 -92q0 -78 -57 -106q57 -26 57 -106q0 -71 -43.5 -102t-131.5 -31z" />
    <glyph glyph-name="four.inferior" unicode="&#x2084;" horiz-adv-x="463" 
d="M351 -214h-82v110h-225v66l229 270h78v-275h70v-61h-70v-110zM272 -43v181l-153 -181h153z" />
    <glyph glyph-name="five.inferior" unicode="&#x2085;" horiz-adv-x="445" 
d="M368 169h-211l-11 -111h61q95 0 136.5 -29.5t41.5 -100.5q0 -82 -55 -116.5t-141 -34.5q-59 0 -128 15v56q84 -10 133 -10q61 0 84.5 19.5t23.5 70.5q0 40 -21.5 54.5t-84.5 14.5h-128l22 235h278v-63z" />
    <glyph glyph-name="six.inferior" unicode="&#x2086;" horiz-adv-x="470" 
d="M384 226v-57q-74 9 -137 9q-69 0 -89.5 -25.5t-20.5 -83.5v-15q47 13 103 13q29 0 51 -2.5t45 -10t37.5 -21t24 -36.5t9.5 -55v-19q0 -43 -16 -73t-43 -45t-54.5 -21.5t-57.5 -6.5q-89 0 -134.5 39.5t-45.5 148.5v98q0 91 41 134.5t144 43.5q80 0 143 -15zM325 -77v17
q0 44 -22 58t-69 14q-53 0 -97 -11v-45q0 -70 25 -94.5t74 -24.5q39 0 64 21t25 65z" />
    <glyph glyph-name="seven.inferior" unicode="&#x2087;" horiz-adv-x="441" 
d="M65 169v63h322v-73l-207 -373h-89l216 383h-242z" />
    <glyph glyph-name="eight.inferior" unicode="&#x2088;" horiz-adv-x="482" 
d="M417 -85q0 -38 -10.5 -64.5t-26 -40.5t-42 -21.5t-48.5 -9.5t-55 -2t-54 2t-47.5 10t-42 22.5t-26 42t-10.5 66.5q0 66 51 97q-49 32 -49 101q0 38 14.5 64t42 38t56 16.5t67.5 4.5q38 0 66 -4.5t55.5 -16.5t42 -38t14.5 -64q0 -69 -49 -101q51 -31 51 -102zM336 -84
q-1 40 -13.5 56.5t-46.5 16.5h-80q-34 0 -47 -17t-13 -56q0 -50 24.5 -65t76.5 -15q51 0 75 15t24 65zM334 116q0 40 -24.5 53t-74.5 13q-48 0 -73 -13.5t-25 -52.5q0 -36 13 -53t46 -17h80q33 0 45.5 17t12.5 53z" />
    <glyph glyph-name="nine.inferior" unicode="&#x2089;" horiz-adv-x="470" 
d="M77 -208v56q103 -9 138 -9q68 0 89 26t21 84v16q-47 -13 -103 -13q-29 0 -51 2.5t-45 10t-37.5 21t-24 36.5t-9.5 55v19q0 43 16 73t43 45t54.5 21t58.5 6q88 0 133.5 -39t45.5 -148v-98q0 -91 -41.5 -135t-143.5 -44q-65 0 -144 15zM325 17v46q0 70 -24.5 94.5
t-74.5 24.5q-39 0 -64 -21t-25 -65v-17q0 -44 21.5 -58t68.5 -14q53 0 98 10z" />
    <glyph glyph-name="parenleft.inferior" unicode="&#x208d;" horiz-adv-x="282" 
d="M235 -180h-79q-35 42 -62 109.5t-27 152.5q0 87 27 156t62 112h79q-85 -119 -85 -268q0 -143 85 -262z" />
    <glyph glyph-name="parenright.inferior" unicode="&#x208e;" horiz-adv-x="282" 
d="M215 82q0 -85 -27 -152.5t-62 -109.5h-79q85 116 85 262q0 152 -85 268h79q35 -43 62 -112t27 -156z" />
    <glyph glyph-name="colonmonetary" unicode="&#x20a1;" horiz-adv-x="482" 
d="M441 545v-68q-95 10 -145 10q-71 0 -106.5 -36t-35.5 -133v-85q0 -95 36 -132.5t106 -37.5q51 0 145 10v-68q-21 -5 -54 -10v-101h-73v92h-24q-25 0 -43 3v-95h-73v116q-110 55 -110 223v85q0 167 110 222v124h73v-103q18 3 46 3h21v100h73v-109q31 -3 54 -10z" />
    <glyph glyph-name="franc" unicode="&#x20a3;" horiz-adv-x="591" 
d="M187 0h-92v158h-53v83h53v502h440v-82h-348v-234h327v-83h-327v-103h209v-83h-209v-158z" />
    <glyph glyph-name="lira" unicode="&#x20a4;" horiz-adv-x="646" 
d="M566 735v-76q-102 16 -184 16q-90 0 -114.5 -34.5t-24.5 -137.5v-39h249v-76h-249v-79h249v-76h-249v-37q0 -69 -36 -118h359v-78h-460v70q45 49 45 126v37h-78v76h78v79h-78v76h78v39q0 133 46.5 192.5t178.5 59.5q110 0 190 -20z" />
    <glyph glyph-name="peseta" unicode="&#x20a7;" horiz-adv-x="689" 
d="M108 561v182q26 0 76.5 0.5t74.5 0.5q59 0 100.5 -3t87 -14t74.5 -30t51 -53.5t28 -82.5h58v-81h-57q-4 -39 -17.5 -69t-30.5 -50t-46.5 -34t-55.5 -21.5t-68 -11t-72.5 -4.5t-80.5 -1h-30v-289h-92v480h-67v81h67zM510 511v13q0 23 -4 40.5t-9.5 31.5t-18 24t-23 17
t-31.5 11.5t-35.5 7t-44.5 4t-49 1.5h-57h-38v-291h23h54.5t47.5 1t44 3t36.5 5t32.5 8.5t25 13t21.5 18t13.5 24t9.5 30.5t2.5 38z" />
    <glyph glyph-name="Euro" unicode="&#x20ac;" horiz-adv-x="667" 
d="M428 673q-41 0 -69 -5.5t-57 -23t-47 -55t-27 -96.5h330l-20 -71h-319q-1 -13 -1 -39q0 -21 2 -63h287l-19 -71h-258q9 -59 28 -97t47.5 -55t55.5 -23t67 -6q48 0 169 11v-76q-80 -17 -174 -17q-53 0 -95 10t-84 36t-70.5 81t-39.5 136h-72v71h64q-2 40 -2 62q0 27 1 40
h-63v71h71q10 82 38 137t71 80.5t85 35t96 9.5q94 0 174 -17v-76q-121 11 -169 11z" />
    <glyph glyph-name="litre" unicode="&#x2113;" horiz-adv-x="479" 
d="M429 43q-71 -60 -141 -60q-136 0 -136 153v107l-63 -55l-40 46q14 13 34.5 31.5t37 33.5t31.5 30v271q0 94 32.5 139.5t105.5 45.5q67 0 97.5 -36.5t30.5 -95.5q0 -84 -44.5 -160t-131.5 -164v-180q0 -54 14 -73t50 -19q38 0 82 37zM348 653q0 65 -51 65q-35 0 -45 -26
t-10 -92v-180q55 64 80.5 117.5t25.5 115.5z" />
    <glyph glyph-name="trademark" unicode="&#x2122;" horiz-adv-x="887" 
d="M805 349h-74v226q0 41 3 78h-1q-24 -47 -32 -61l-60 -97h-59l-58 97q-13 20 -33 61h-1q3 -38 3 -78v-226h-73v394h86l81 -139q12 -20 24 -46h1q19 38 24 46l82 139h87v-394zM357 684h-119v-335h-75v335h-120v59h314v-59z" />
    <glyph glyph-name="Omega" unicode="&#x2126;" horiz-adv-x="681" 
d="M626 384q0 -202 -164 -267v-41h159v-76h-244v161q77 19 116.5 76.5t39.5 146.5v73q0 216 -193 216t-193 -216v-73q0 -89 39.5 -146.5t116.5 -76.5v-161h-243v76h158v41q-164 65 -164 267v73q0 144 77 221t209 77q133 0 209.5 -77t76.5 -221v-73z" />
    <glyph glyph-name="estimated" unicode="&#x212e;" horiz-adv-x="657" 
d="M625 282h-464v-193q72 -63 164 -63q83 0 133.5 33t93.5 94l33 -19q-47 -68 -106.5 -104.5t-153.5 -36.5q-129 0 -211 84.5t-82 205.5q0 123 81.5 206.5t215.5 83.5t215 -84.5t81 -206.5zM495 315v163q-31 26 -76 44t-90 18q-103 0 -168 -62v-163h334z" />
    <glyph glyph-name="onethird" unicode="&#x2153;" horiz-adv-x="1026" 
d="M772 743l-473 -743h-90l473 743h90zM359 300h-290v59l104 3v310l-105 -33v67l128 43h59v-387l104 -3v-59zM807 -9q-89 0 -141 15v55q100 -8 135 -8q53 0 76 15t23 58q0 40 -14.5 57t-62.5 17h-136v60h137q47 0 61.5 18t14.5 54q0 34 -21 47.5t-78 13.5q-35 0 -135 -8v55
q52 15 141 15t132 -27t43 -92q0 -78 -57 -106q57 -26 57 -106q0 -71 -43.5 -102t-131.5 -31z" />
    <glyph glyph-name="twothirds" unicode="&#x2154;" horiz-adv-x="1084" 
d="M814 743l-474 -743h-90l474 743h90zM69 686v54q60 15 149 15q84 0 125 -26.5t41 -84.5q0 -46 -27.5 -77.5t-99.5 -66.5q-73 -36 -93.5 -59.5t-20.5 -70.5v-6h235v-64h-316v56q0 75 31 114t115 80q61 30 77.5 47t16.5 45t-21.5 40t-71.5 12q-40 0 -140 -8zM840 -9
q-88 0 -141 15v55q100 -8 135 -8q53 0 76 15t23 58q0 40 -14.5 57t-62.5 17h-136v60h137q47 0 61.5 18t14.5 54q0 34 -21 47.5t-78 13.5q-35 0 -135 -8v55q53 15 141 15q89 0 132 -27t43 -92q0 -78 -57 -106q57 -26 57 -106q0 -71 -43.5 -102t-131.5 -31z" />
    <glyph glyph-name="oneeighth" unicode="&#x215b;" horiz-adv-x="1037" 
d="M772 743l-473 -743h-90l473 743h90zM359 300h-290v62h104v310l-105 -33v67l128 43h59v-390h104v-59zM975 129q0 -38 -10.5 -64.5t-26 -40.5t-42 -21.5t-48.5 -9.5t-55 -2t-54 2t-47.5 10t-42 22.5t-26 42t-10.5 66.5q0 66 51 97q-49 32 -49 101q0 38 14.5 64t42 38
t56 16.5t67.5 4.5q38 0 66 -4.5t55.5 -16.5t42 -38t14.5 -64q0 -69 -49 -101q51 -31 51 -102zM894 130q-1 40 -13.5 56.5t-46.5 16.5h-80q-34 0 -47 -17t-13 -56q0 -50 24.5 -65t76.5 -15q51 0 75 15t24 65zM892 330q0 40 -24.5 53t-74.5 13q-48 0 -73 -13.5t-25 -52.5
q0 -36 13 -53t46 -17h80q33 0 45.5 17t12.5 53z" />
    <glyph glyph-name="threeeighths" unicode="&#x215c;" horiz-adv-x="1062" 
d="M802 743l-473 -743h-90l473 743h90zM205 291q-89 0 -141 15v55q100 -8 135 -8q53 0 76 15t23 58q0 40 -14.5 57t-62.5 17h-136v60h137q47 0 61.5 18t14.5 54q0 34 -21 47.5t-78 13.5q-35 0 -135 -8v55q52 15 141 15t132 -27t43 -92q0 -78 -57 -106q57 -26 57 -106
q0 -71 -43.5 -102t-131.5 -31zM997 129q0 -38 -10.5 -64.5t-26 -40.5t-42 -21.5t-48.5 -9.5t-55 -2t-54 2t-47.5 10t-42 22.5t-26 42t-10.5 66.5q0 66 51 97q-49 32 -49 101q0 38 14.5 64t42 38t56 16.5t67.5 4.5q38 0 66 -4.5t55.5 -16.5t42 -38t14.5 -64q0 -69 -49 -101
q51 -31 51 -102zM916 130q-1 40 -13.5 56.5t-46.5 16.5h-80q-34 0 -47 -17t-13 -56q0 -50 24.5 -65t76.5 -15q51 0 75 15t24 65zM914 330q0 40 -24.5 53t-74.5 13q-48 0 -73 -13.5t-25 -52.5q0 -36 13 -53t46 -17h80q33 0 45.5 17t12.5 53z" />
    <glyph glyph-name="fiveeighths" unicode="&#x215d;" horiz-adv-x="1067" 
d="M792 743l-474 -743h-90l474 743h90zM368 683h-211l-11 -111h61q95 0 136.5 -29.5t41.5 -100.5q0 -82 -55 -116.5t-141 -34.5q-59 0 -128 15v56q84 -10 133 -10q61 0 84.5 19.5t23.5 70.5q0 40 -21.5 54.5t-84.5 14.5h-128l22 235h278v-63zM1004 129q0 -38 -10.5 -64.5
t-26 -40.5t-42 -21.5t-48.5 -9.5t-55 -2t-54 2t-47.5 10t-42 22.5t-26 42t-10.5 66.5q0 66 51 97q-49 32 -49 101q0 38 14.5 64t42 38t56 16.5t67.5 4.5q38 0 66 -4.5t55.5 -16.5t42 -38t14.5 -64q0 -69 -49 -101q51 -31 51 -102zM923 130q-1 40 -13.5 56.5t-46.5 16.5h-80
q-34 0 -47 -17t-13 -56q0 -50 24.5 -65t76.5 -15q51 0 75 15t24 65zM921 330q0 40 -24.5 53t-74.5 13q-48 0 -73 -13.5t-25 -52.5q0 -36 13 -53t46 -17h80q33 0 45.5 17t12.5 53z" />
    <glyph glyph-name="seveneighths" unicode="&#x215e;" horiz-adv-x="977" 
d="M702 743l-474 -743h-90l474 743h90zM60 683v63h322v-73l-207 -373h-89l216 383h-242zM911 129q0 -38 -10.5 -64.5t-26 -40.5t-42 -21.5t-48.5 -9.5t-55 -2t-54 2t-47.5 10t-42 22.5t-26 42t-10.5 66.5q0 66 51 97q-49 32 -49 101q0 38 14.5 64t42 38t56 16.5t67.5 4.5
q38 0 66 -4.5t55.5 -16.5t42 -38t14.5 -64q0 -69 -49 -101q51 -31 51 -102zM830 130q-1 40 -13.5 56.5t-46.5 16.5h-80q-34 0 -47 -17t-13 -56q0 -50 24.5 -65t76.5 -15q51 0 75 15t24 65zM828 330q0 40 -24.5 53t-74.5 13q-48 0 -73 -13.5t-25 -52.5q0 -36 13 -53t46 -17
h80q33 0 45.5 17t12.5 53z" />
    <glyph glyph-name="partialdiff" unicode="&#x2202;" horiz-adv-x="619" 
d="M555 467q0 -111 -22 -223q-26 -137 -88.5 -197t-174.5 -60q-101 0 -152.5 50t-51.5 141q0 54 5 89q14 109 79 168t176 59q87 0 139 -47q2 33 0 67q-6 88 -48 139t-141 51q-73 0 -140 -16v72q66 18 143 18q141 0 208.5 -81.5t67.5 -229.5zM451 306q0 111 -125 111
q-148 0 -167 -162q-5 -42 -5 -77q0 -59 29.5 -86t95.5 -27q77 0 117 45t51 142q4 31 4 54z" />
    <glyph glyph-name="Delta" unicode="&#x2206;" horiz-adv-x="696" 
d="M657 0h-618l244 743h128zM532 80l-149 464q-8 25 -34 131h-2q-29 -115 -34 -131l-149 -464h368z" />
    <glyph glyph-name="product" unicode="&#x220f;" horiz-adv-x="722" 
d="M680 659h-91v-725h-92v725h-273v-725h-92v725h-91v84h639v-84z" />
    <glyph glyph-name="summation" unicode="&#x2211;" horiz-adv-x="602" 
d="M522 -66h-440v83l221 313l-221 330v83h440v-83h-327l204 -307v-49l-204 -287h327v-83z" />
    <glyph glyph-name="minus" unicode="&#x2212;" horiz-adv-x="702" 
d="M589 354h-477v74h477v-74z" />
    <glyph glyph-name="uni2215" unicode="&#x2215;" horiz-adv-x="413" 
d="M488 743l-473 -743h-90l473 743h90z" />
    <glyph glyph-name="uni2219" unicode="&#x2219;" horiz-adv-x="252" 
d="M171 300h-91v138h91v-138z" />
    <glyph glyph-name="radical" unicode="&#x221a;" horiz-adv-x="801" 
d="M745 873l-309 -947h-107l-154 478h-119v75h176l150 -485l281 879h82z" />
    <glyph glyph-name="infinity" unicode="&#x221e;" horiz-adv-x="775" 
d="M643 361q0 -227 -145 -227h-7q-64 0 -112 54q-36 -56 -99 -56h-7q-147 0 -147 228v25q0 227 147 227h7q63 0 109 -56q32 57 102 57h7q145 0 145 -228v-24zM567 361v24q0 33 -1.5 54t-8 47t-21.5 39.5t-38 13.5h-7q-19 -1 -30.5 -12t-18.5 -33.5t-11 -52.5t-9 -73v-3
q-7 -70 -15 -105q35 -53 84 -53h7q23 0 38 13.5t21.5 39.5t8 47t1.5 54zM364 483q-36 56 -84 56h-7q-24 0 -39 -13.5t-21.5 -39.5t-8.5 -47.5t-2 -53.5v-25q0 -33 2 -54t8 -47t21.5 -39t39.5 -13h7q32 0 45.5 38t23.5 129q6 60 15 109z" />
    <glyph glyph-name="integral" unicode="&#x222b;" horiz-adv-x="532" 
d="M469 687q-60 4 -96 4q-42 0 -52 -17t-10 -73v-641q0 -37 -4 -61.5t-17.5 -49.5t-43.5 -37.5t-77 -12.5q-51 0 -106 13v62q60 -4 97 -4q41 0 51 17t10 73v641q0 37 4 61.5t17.5 49.5t43.5 37.5t77 12.5q51 0 106 -13v-62z" />
    <glyph glyph-name="approxequal" unicode="&#x2248;" horiz-adv-x="702" 
d="M586 571q0 -71 -27 -109t-90 -38q-66 0 -118 41l-56 44q-17 13 -24 18t-18 9.5t-21 4.5q-24 0 -32 -16.5t-8 -54.5v-36h-77v36q0 146 118 146q47 0 106 -46l56 -44q34 -27 74 -27q24 0 32 17t8 55v36h77v-36zM586 309q0 -71 -27 -109t-90 -38q-66 0 -118 41l-56 44
q-17 13 -24 18t-18 9.5t-21 4.5q-24 0 -32 -16.5t-8 -54.5v-36h-77v36q0 146 118 146q47 0 106 -46l56 -44q34 -27 74 -27q24 0 32 17t8 55v36h77v-36z" />
    <glyph glyph-name="notequal" unicode="&#x2260;" horiz-adv-x="702" 
d="M578 244h-241l-90 -244h-78l90 244h-132v74h161l54 146h-215v75h243l76 204h78l-76 -204h130v-75h-159l-53 -146h212v-74z" />
    <glyph glyph-name="lessequal" unicode="&#x2264;" horiz-adv-x="702" 
d="M597 0h-494v74h494v-74zM534 139h-122l-291 252l291 251h122l-290 -251z" />
    <glyph glyph-name="greaterequal" unicode="&#x2265;" horiz-adv-x="702" 
d="M597 0h-494v74h494v-74zM579 391l-290 -252h-123l291 252l-291 251h123z" />
    <glyph glyph-name="lozenge" unicode="&#x25ca;" horiz-adv-x="702" 
d="M599 359l-250 -297l-246 295l249 300zM507 359l-155 185l-157 -187l154 -183z" />
    <glyph glyph-name="percent.oldstyle" unicode="&#xfe6a;" horiz-adv-x="862" 
d="M795 158q0 -169 -140 -169q-141 0 -141 169v10q0 168 141 168q140 0 140 -168v-10zM719 158v10q0 105 -64 105q-32 0 -48.5 -23.5t-16.5 -81.5v-10q0 -59 16.5 -82t48.5 -23q31 0 47.5 23t16.5 82zM656 568l-365 -568h-82l366 568h81zM348 400q0 -168 -140 -168
q-141 0 -141 168v10q0 169 141 169q140 0 140 -169v-10zM273 400v10q0 59 -16.5 82t-48.5 23q-31 0 -47.5 -23t-16.5 -82v-10q0 -58 16.5 -81t47.5 -23q32 0 48.5 23t16.5 81z" />
    <glyph glyph-name="dollar.oldstyle" horiz-adv-x="497" 
d="M71 7v65q135 -5 168 -5q112 0 112 77q0 31 -18 50.5t-70 42.5l-82 36q-65 29 -94.5 66t-29.5 96q0 120 152 138v91h80v-88q87 -4 137 -18v-67q-122 9 -167 9q-55 0 -83.5 -14t-28.5 -50q0 -30 15.5 -49.5t61.5 -39.5l83 -36q73 -31 103.5 -67t30.5 -99
q0 -62 -38.5 -101.5t-113.5 -49.5v-97h-80v93q-84 3 -138 17z" />
    <glyph glyph-name="dollar.superior" horiz-adv-x="417" 
d="M61 339v62q100 -8 137 -8q87 0 87 58q0 21 -13 34t-48 28l-72 31q-53 23 -78 50t-25 76q0 101 125 115v75h73v-73q70 -3 108 -13v-63q-95 10 -136 10q-87 0 -87 -49q0 -21 12.5 -34t45.5 -26l73 -28q54 -21 80 -50.5t26 -77.5q0 -111 -122 -128v-78h-73v75q-57 1 -113 14
z" />
    <glyph glyph-name="zero.oldstyle" horiz-adv-x="638" 
d="M579 260q0 -132 -67.5 -202.5t-192.5 -70.5t-193 70.5t-68 202.5v44q0 131 68 201.5t193 70.5t192.5 -70t67.5 -202v-44zM488 260v44q0 193 -169 193t-169 -193v-44q0 -194 169 -194t169 194z" />
    <glyph glyph-name="one.oldstyle" horiz-adv-x="508" 
d="M456 0h-404v76l160 5v391l-161 -58v86l185 70h67v-489l153 -5v-76z" />
    <glyph glyph-name="two.oldstyle" horiz-adv-x="589" 
d="M73 481v73q86 22 204 22q139 0 197.5 -40t58.5 -121q0 -71 -48 -126.5t-190 -148.5l-89 -58h322v-82h-466v82l179 114q123 78 161.5 123t38.5 96q0 44 -39 63t-131 19q-79 0 -198 -16z" />
    <glyph glyph-name="three.oldstyle" horiz-adv-x="596" 
d="M517 22q0 -117 -65.5 -166t-194.5 -49q-95 0 -203 26v69q115 -16 202 -16q90 0 129.5 28t39.5 108v25q0 59 -24 89.5t-101 30.5h-215v77h215q76 0 100.5 32t24.5 92v13q0 66 -36 91t-134 25q-81 0 -198 -14v71q95 22 200 22q135 0 197.5 -44t62.5 -151v-13
q0 -118 -90 -162q90 -45 90 -159v-25z" />
    <glyph glyph-name="four.oldstyle" horiz-adv-x="656" 
d="M601 17h-113v-196h-92v196h-352v94l339 453h105v-467h113v-80zM396 97v343l-260 -343h260z" />
    <glyph glyph-name="five.oldstyle" horiz-adv-x="585" 
d="M527 15q0 -117 -67.5 -169t-203.5 -52q-95 0 -205 24v73q148 -18 203 -18q100 0 141 31.5t41 110.5v29q0 76 -37 105t-145 29h-188l32 373h402v-82h-324l-19 -212h101q142 0 205.5 -50t63.5 -163v-29z" />
    <glyph glyph-name="six.oldstyle" horiz-adv-x="631" 
d="M572 221q0 -58 -18 -102t-44 -68.5t-61.5 -40t-65 -20t-60.5 -4.5q-46 0 -79.5 5t-70.5 22.5t-60.5 48.5t-39 86.5t-15.5 132.5v193q0 143 63 212t215 69q100 0 203 -22v-72q-117 15 -201 15q-63 0 -102 -13.5t-57 -43.5t-23.5 -61.5t-5.5 -83.5v-35q80 23 174 23
q42 0 74.5 -4t66.5 -16.5t56 -33.5t36.5 -58t14.5 -87v-42zM480 221v38q0 78 -38 103.5t-122 25.5q-90 0 -170 -19v-93q0 -122 43 -166.5t130 -44.5q68 0 112.5 38.5t44.5 117.5z" />
    <glyph glyph-name="seven.oldstyle" horiz-adv-x="578" 
d="M533 466l-324 -645h-103l341 661h-395v82h481v-98z" />
    <glyph glyph-name="eight.oldstyle" horiz-adv-x="655" 
d="M591 214q0 -63 -16.5 -107.5t-39 -67.5t-61.5 -35.5t-69 -15t-77 -2.5h-3q-47 0 -77 2.5t-69 15t-61.5 35.5t-39 67.5t-16.5 107.5v8q0 114 81 164q-78 47 -78 156v11q0 61 22 103t62 62.5t81.5 28.5t94.5 8h3q53 0 94.5 -8t81.5 -28.5t62 -62.5t22 -103v-11
q0 -109 -78 -156q81 -50 81 -164v-8zM499 214v8q0 66 -23.5 95.5t-81.5 29.5h-135q-58 0 -81.5 -29.5t-23.5 -95.5v-8q0 -49 12 -80t37 -45.5t52 -19t70 -4.5h3q43 0 70 4.5t52 19t37 45.5t12 80zM497 542v11q0 74 -42.5 98.5t-126.5 24.5h-3q-84 0 -126.5 -24.5
t-42.5 -98.5v-11q0 -58 23 -87.5t80 -29.5h135q57 0 80 29.5t23 87.5z" />
    <glyph glyph-name="nine.oldstyle" horiz-adv-x="631" 
d="M562 88q0 -143 -63 -212t-215 -69q-100 0 -203 22v72q117 -15 201 -15q63 0 102 13.5t57 43.5t23.5 61.5t5.5 83.5v35q-80 -23 -174 -23q-42 0 -74.5 4t-66.5 16.5t-56 33.5t-36.5 58t-14.5 87v42q0 58 18 102t44 68.5t61.5 40t65 20t60.5 4.5q46 0 79.5 -5t70.5 -22.5
t60.5 -48.5t39 -86.5t15.5 -132.5v-193zM470 193v93q0 122 -43 166.5t-130 44.5q-68 0 -112.5 -38.5t-44.5 -117.5v-38q0 -78 38 -103.5t122 -25.5q90 0 170 19z" />
    <glyph glyph-name="comma.superior" horiz-adv-x="252" 
d="M193 421l-72 -142h-68l55 142h85z" />
    <glyph glyph-name="period.superior" horiz-adv-x="202" 
d="M140 332h-78v89h78v-89z" />
    <glyph glyph-name="a.superior" horiz-adv-x="408" 
d="M343 303h-74v24q-50 -32 -116 -32q-108 0 -108 97v11q0 34 12 55.5t37 32t52 13.5t70 3h48v19q0 40 -14 52.5t-64 12.5q-38 0 -115 -5v47q44 17 127 17q85 0 115 -28.5t30 -95.5v-223zM266 372v87h-49q-54 0 -74.5 -10t-20.5 -45v-12q0 -44 53 -44q49 0 91 24z" />
    <glyph glyph-name="b.superior" horiz-adv-x="425" 
d="M65 774h79v-142q38 19 88 19q75 0 111.5 -37.5t36.5 -116.5v-41q0 -85 -42.5 -123.5t-126.5 -38.5q-62 0 -146 9v471zM301 456v41q0 51 -17.5 71.5t-60.5 20.5q-49 0 -79 -16v-214q56 -4 68 -4q47 0 68 22.5t21 78.5z" />
    <glyph glyph-name="cent.superior" horiz-adv-x="385" 
d="M337 335q-32 -9 -85 -11v-74h-69v78q-135 25 -135 201v53q0 180 135 202v72h69v-69q49 -1 85 -10v-64q-58 6 -100 6q-61 0 -85 -32t-24 -105v-53q0 -73 23 -104.5t86 -31.5q43 0 100 5v-63z" />
    <glyph glyph-name="d.superior" horiz-adv-x="425" 
d="M360 303h-74v18q-46 -27 -103 -27q-65 0 -101.5 38.5t-36.5 116.5v42q0 87 40.5 123t115.5 36q38 0 80 -8v132h79v-471zM282 374v208q-42 8 -73 8q-44 0 -64.5 -20t-20.5 -79v-42q0 -49 19 -71.5t60 -22.5q39 0 79 19z" />
    <glyph glyph-name="e.superior" horiz-adv-x="417" 
d="M372 448h-248v-5q0 -21 2.5 -34t11.5 -28t31 -22t56 -7q63 0 131 11v-55q-61 -14 -137 -14q-54 0 -90 13.5t-53.5 38.5t-24 51.5t-6.5 61.5v24q0 82 42 124.5t121 42.5q84 0 124 -45.5t40 -124.5v-32zM292 499v5q0 87 -83 87q-84 0 -84 -87v-5h167z" />
    <glyph glyph-name="l.superior" horiz-adv-x="209" 
d="M144 303h-79v471h79v-471z" />
    <glyph glyph-name="m.superior" horiz-adv-x="623" 
d="M141 613q50 37 110 37q58 0 83 -38q58 38 115 38q30 0 51 -8t32 -19t17 -30t7.5 -34t1.5 -38v-218h-80v217q0 27 -1.5 39t-12.5 21.5t-34 9.5q-34 0 -81 -25q2 -16 2 -44v-218h-79v218q0 20 -1 29.5t-5 20.5t-13.5 15t-25.5 4q-35 0 -83 -27v-260h-79v338h76v-28z" />
    <glyph glyph-name="o.superior" horiz-adv-x="417" 
d="M372 454q0 -78 -42 -119t-122 -41q-79 0 -121 41t-42 119v37q0 78 42 118.5t121 40.5q80 0 122 -40.5t42 -118.5v-37zM293 454v37q0 51 -20.5 74.5t-64.5 23.5t-64 -23t-20 -75v-37q0 -52 20 -75.5t64 -23.5t64.5 24t20.5 75z" />
    <glyph glyph-name="r.superior" horiz-adv-x="310" 
d="M144 303h-79v338h75v-28q47 37 125 37v-65q-71 0 -121 -25v-257z" />
    <glyph glyph-name="s.superior" horiz-adv-x="365" 
d="M320 393q0 -99 -145 -99q-72 0 -124 14v52q90 -9 121 -9q39 0 54 9.5t15 30.5q0 19 -12 29t-53 25l-27 10q-55 21 -79.5 43.5t-24.5 61.5q0 48 34.5 69t104.5 21q87 0 124 -13v-50q-5 0 -29.5 2t-49 3t-40.5 1q-36 0 -50.5 -6.5t-14.5 -25.5q0 -15 11.5 -24t45.5 -22
l29 -11q63 -24 86.5 -47t23.5 -64z" />
    <glyph glyph-name="t.superior" horiz-adv-x="331" 
d="M286 304q-30 -10 -72 -10q-54 0 -76 22t-22 76v192l-71 6v51h71v88h79v-88h91v-57h-91v-191q0 -28 5.5 -35.5t28.5 -7.5q35 0 57 2v-48z" />
    <glyph glyph-name="hyphen.superior" horiz-adv-x="261" 
d="M203 502h-146v61h146v-61z" />
    <glyph glyph-name="cent.oldstyle" horiz-adv-x="503" 
d="M439 561v-69q-78 6 -133 6q-81 0 -116.5 -38.5t-35.5 -130.5v-92q0 -91 35.5 -130t116.5 -39q75 0 133 8v-71q-44 -12 -111 -14v-108h-81v110q-183 27 -183 244v92q0 216 183 244v105h82v-103q65 -3 110 -14z" />
    <glyph glyph-name="hyphen.inferior" horiz-adv-x="261" 
d="M203 -1h-146v61h146v-61z" />
    <glyph glyph-name="cent.inferior" horiz-adv-x="385" 
d="M336 -212q-32 -9 -85 -11v-74h-69v78q-135 25 -135 201v53q0 180 135 202v72h69v-69q49 -1 85 -10v-64q-58 6 -100 6q-61 0 -85 -32t-24 -105v-53q0 -73 23 -104.5t86 -31.5q42 0 100 5v-63z" />
    <glyph glyph-name="dollar.inferior" horiz-adv-x="417" 
d="M58 -207v62q100 -8 137 -8q87 0 87 58q0 21 -13 34t-48 28l-72 31q-53 23 -78 50t-25 76q0 101 125 115v75h73v-73q70 -3 108 -13v-63q-95 10 -136 10q-87 0 -87 -49q0 -21 12.5 -34t45.5 -26l73 -28q54 -21 80 -50.5t26 -77.5q0 -111 -122 -128v-78h-73v75
q-57 1 -113 14z" />
    <glyph glyph-name="period.inferior" horiz-adv-x="202" 
d="M140 -170h-78v89h78v-89z" />
    <glyph glyph-name="comma.inferior" horiz-adv-x="252" 
d="M193 -81l-72 -142h-68l55 142h85z" />
    <glyph glyph-name="commaaccent" horiz-adv-x="535" 
d="M329 -68l-89 -142h-82l67 142h104z" />
    <glyph glyph-name="Dotaccent" 
d="M273 835h-89v120h89v-120z" />
    <glyph glyph-name="Breve" 
d="M397 954q-13 -155 -169 -155q-157 0 -168 155h67q5 -52 29 -73.5t72 -21.5t72 21.5t30 73.5h67z" />
    <glyph glyph-name="Ogonek" 
d="M348 -207q-27 -10 -85 -10q-62 0 -94.5 26t-32.5 73q0 34 26 63t90 69h101q-90 -53 -115.5 -78.5t-25.5 -49.5q0 -46 59 -46q9 0 77 5v-52z" />
    <glyph glyph-name="Cedilla" 
d="M301 -68l-136 -142h-92l116 142h112z" />
    <glyph glyph-name="Ring" 
d="M345 889q0 -55 -31.5 -82t-83.5 -27q-53 0 -85.5 27t-32.5 82t32.5 82t85.5 27q52 0 83.5 -27t31.5 -82zM285 889q0 55 -55 55q-56 0 -56 -55t56 -55q55 0 55 55z" />
    <glyph glyph-name="Tilde" 
d="M430 920q0 -60 -22 -92t-75 -32q-50 0 -102 41l-41 33q-32 28 -57 28q-20 0 -27.5 -15t-7.5 -46v-34h-65v34q0 124 100 124q49 0 97 -38l42 -34q36 -29 59 -29q21 0 28 14t7 46v34h64v-34z" />
    <glyph glyph-name="Circumflex" 
d="M423 800h-90l-105 105l-104 -105h-90l135 154h119z" />
    <glyph glyph-name="Acute" 
d="M391 954l-150 -154h-90l131 154h109z" />
    <glyph glyph-name="Caron" 
d="M34 954h90l104 -106l105 106h90l-135 -154h-119z" />
    <glyph glyph-name="Dieresis" 
d="M384 827h-81v118h81v-118zM156 945v-118h-82v118h82z" />
    <glyph glyph-name="Grave" 
d="M294 800h-90l-150 154h109z" />
    <glyph glyph-name="Hungarumlaut" 
d="M489 951l-150 -154h-91l132 154h109zM167 951h110l-150 -154h-91z" />
    <glyph glyph-name="Macron" 
d="M400 839h-343v70h343v-70z" />
    <glyph glyph-name="commaaccent.cap" horiz-adv-x="535" 
d="M329 -68l-89 -142h-82l67 142h104z" />
    <glyph glyph-name="h.superior" horiz-adv-x="445" 
d="M65 774h79v-151q56 27 116 27q63 0 91.5 -33.5t28.5 -103.5v-210h-80v209q0 45 -13.5 61t-47.5 16q-42 0 -95 -21v-265h-79v471z" />
    <glyph glyph-name="zero.slash" horiz-adv-x="655" 
d="M591 299q0 -154 -68 -233.5t-193 -79.5q-112 0 -178 63l-33 -49h-89l76 112q-37 74 -37 187v143q0 154 67.5 233.5t193.5 79.5q107 0 174 -59l32 47h89l-74 -109q40 -75 40 -192v-143zM499 299v143q0 56 -11 100l-285 -419q41 -58 126 -58q170 0 170 234zM161 299
q0 -52 8 -95l284 417q-42 55 -124 55q-168 0 -168 -234v-143z" />
    <glyph glyph-name="perthousand.oldstyle" horiz-adv-x="1199" 
d="M1132 158q0 -169 -140 -169q-141 0 -141 169v10q0 168 141 168q140 0 140 -168v-10zM1056 158v10q0 105 -64 105q-32 0 -48.5 -23.5t-16.5 -81.5v-10q0 -59 16.5 -82t48.5 -23q31 0 47.5 23t16.5 82zM795 158q0 -169 -140 -169q-141 0 -141 169v10q0 168 141 168
q140 0 140 -168v-10zM719 158v10q0 105 -64 105q-32 0 -48.5 -23.5t-16.5 -81.5v-10q0 -59 16.5 -82t48.5 -23q31 0 47.5 23t16.5 82zM656 568l-365 -568h-82l366 568h81zM348 400q0 -168 -140 -168q-141 0 -141 168v10q0 169 141 169q140 0 140 -169v-10zM273 400v10
q0 59 -16.5 82t-48.5 23q-31 0 -47.5 -23t-16.5 -82v-10q0 -58 16.5 -81t47.5 -23q32 0 48.5 23t16.5 81z" />
    <glyph glyph-name="zero.taboldstyle" horiz-adv-x="655" 
d="M588 260q0 -132 -68 -202.5t-193 -70.5t-192.5 70.5t-67.5 202.5v44q0 132 67.5 202t192.5 70t193 -70.5t68 -201.5v-44zM496 260v44q0 193 -169 193q-168 0 -168 -193v-44q0 -194 168 -194q169 0 169 194z" />
    <glyph glyph-name="one.taboldstyle" horiz-adv-x="655" 
d="M530 0h-404v76l159 5v391l-160 -58v86l184 70h68v-489l153 -5v-76z" />
    <glyph glyph-name="two.taboldstyle" horiz-adv-x="655" 
d="M103 481v73q86 22 204 22q139 0 197.5 -40t58.5 -121q0 -71 -48 -126.5t-190 -148.5l-89 -58h322v-82h-466v82l179 114q123 78 161.5 123t38.5 96q0 44 -39 63t-131 19q-79 0 -198 -16z" />
    <glyph glyph-name="three.taboldstyle" horiz-adv-x="655" 
d="M559 22q0 -117 -65.5 -166t-194.5 -49q-95 0 -203 26v69q115 -16 202 -16q90 0 129.5 28t39.5 108v25q0 59 -24 89.5t-101 30.5h-215v77h215q76 0 100.5 32t24.5 92v13q0 66 -36 91t-134 25q-81 0 -198 -14v71q95 22 200 22q135 0 197.5 -44t62.5 -151v-13
q0 -118 -90 -162q90 -45 90 -159v-25z" />
    <glyph glyph-name="four.taboldstyle" horiz-adv-x="655" 
d="M605 17h-113v-196h-92v196h-352v94l339 453h105v-467h113v-80zM400 97v343l-260 -343h260z" />
    <glyph glyph-name="five.taboldstyle" horiz-adv-x="655" 
d="M565 28q0 -117 -67.5 -169t-203.5 -52q-95 0 -205 24v73q148 -18 203 -18q100 0 141 31.5t41 110.5v29q0 76 -37 105t-145 29h-188l32 373h402v-82h-324l-19 -212h101q142 0 205.5 -50t63.5 -163v-29z" />
    <glyph glyph-name="six.taboldstyle" horiz-adv-x="655" 
d="M584 221q0 -58 -18 -102t-44 -68.5t-61.5 -40t-65 -20t-60.5 -4.5q-46 0 -79.5 5t-70.5 22.5t-60.5 48.5t-39 86.5t-15.5 132.5v193q0 143 63 212t215 69q100 0 203 -22v-72q-117 15 -201 15q-63 0 -102 -13.5t-57 -43.5t-23.5 -61.5t-5.5 -83.5v-35q80 23 174 23
q42 0 74.5 -4t66.5 -16.5t56 -33.5t36.5 -58t14.5 -87v-42zM492 221v38q0 78 -38 103.5t-122 25.5q-90 0 -170 -19v-93q0 -122 43 -166.5t130 -44.5q68 0 112.5 38.5t44.5 117.5z" />
    <glyph glyph-name="seven.taboldstyle" horiz-adv-x="655" 
d="M568 466l-324 -645h-103l341 661h-395v82h481v-98z" />
    <glyph glyph-name="eight.taboldstyle" horiz-adv-x="655" 
d="M591 214q0 -63 -16.5 -107.5t-39 -67.5t-61.5 -35.5t-69 -15t-77 -2.5h-3q-47 0 -77 2.5t-69 15t-61.5 35.5t-39 67.5t-16.5 107.5v8q0 114 81 164q-78 47 -78 156v11q0 61 22 103t62 62.5t81.5 28.5t94.5 8h3q53 0 94.5 -8t81.5 -28.5t62 -62.5t22 -103v-11
q0 -109 -78 -156q81 -50 81 -164v-8zM499 214v8q0 66 -23.5 95.5t-81.5 29.5h-135q-58 0 -81.5 -29.5t-23.5 -95.5v-8q0 -49 12 -80t37 -45.5t52 -19t70 -4.5h3q43 0 70 4.5t52 19t37 45.5t12 80zM497 542v11q0 74 -42.5 98.5t-126.5 24.5h-3q-84 0 -126.5 -24.5
t-42.5 -98.5v-11q0 -58 23 -87.5t80 -29.5h135q57 0 80 29.5t23 87.5z" />
    <glyph glyph-name="nine.taboldstyle" horiz-adv-x="655" 
d="M584 88q0 -143 -63 -212t-215 -69q-100 0 -203 22v72q117 -15 201 -15q63 0 102 13.5t57 43.5t23.5 61.5t5.5 83.5v35q-80 -23 -174 -23q-42 0 -74.5 4t-66.5 16.5t-56 33.5t-36.5 58t-14.5 87v42q0 58 18 102t44 68.5t61.5 40t65 20t60.5 4.5q46 0 79.5 -5t70.5 -22.5
t60.5 -48.5t39 -86.5t15.5 -132.5v-193zM492 193v93q0 122 -43 166.5t-130 44.5q-68 0 -112.5 -38.5t-44.5 -117.5v-38q0 -78 38 -103.5t122 -25.5q90 0 170 19z" />
    <glyph glyph-name="colonmonetary.taboldstyle" horiz-adv-x="601" 
d="M487 561v-74q-67 9 -131 9q-81 0 -116 -38t-35 -130v-90q0 -92 35 -130t116 -38q73 0 131 8v-73q-19 -6 -52 -9v-100h-73v93h-13q-20 0 -54 4v-97h-73v120q-108 54 -108 222v90q0 166 108 222v114h73v-92q25 5 54 5h13v87h73v-94q22 -2 52 -9z" />
    <glyph glyph-name="Euro.taboldstyle" horiz-adv-x="614" 
d="M384 497q-71 0 -104 -24t-40 -96h254l-19 -65h-237v-69h218l-18 -64h-198q6 -65 41 -90t106 -25q72 0 133 7v-71q-58 -14 -138 -14q-108 0 -164 42t-67 151h-52v64h50v69h-50v65h52q9 116 64.5 158t164.5 42q82 0 140 -14v-73q-93 7 -136 7z" />
    <glyph glyph-name="florin.taboldstyle" horiz-adv-x="612" 
d="M507 566l-7 -64q-48 4 -63 4q-28 0 -41.5 -11.5t-19.5 -51.5l-16 -109h129l-10 -68h-129l-26 -202q-9 -73 -41.5 -102.5t-93.5 -29.5q-45 0 -85 9l9 66q58 -4 67 -4q28 0 39.5 14.5t18.5 53.5l25 195h-115l9 68h117l16 116q10 71 43.5 98.5t93.5 27.5q36 0 80 -10z" />
    <glyph glyph-name="numbersign.taboldstyle" horiz-adv-x="663" 
d="M558 144h-107l-16 -144h-76l16 144h-123l-16 -144h-75l16 144h-73v69h80l15 133h-95v69h103l17 151h75l-17 -151h122l18 151h75l-17 -151h78v-69h-86l-14 -133h100v-69zM397 346h-123l-15 -133h124z" />
    <glyph glyph-name="sterling.taboldstyle" horiz-adv-x="613" 
d="M504 561v-75q-89 10 -137 10q-67 0 -89 -22.5t-22 -88.5v-55h183v-75h-183v-98q0 -46 -23 -78h271v-79h-373v67q37 37 37 90v98h-60v75h60v55q0 102 41.5 146.5t145.5 44.5q69 0 149 -15z" />
    <glyph glyph-name="yen.taboldstyle" horiz-adv-x="621" 
d="M354 0h-88v166h-197v65h192l-41 75h-151v65h118l-101 195h98l87 -173q21 -44 38 -86h2q19 47 39 86l88 173h95l-101 -195h120v-65h-152l-41 -75h193v-65h-198v-166z" />
    <glyph glyph-name="dollar.taboldstyle" horiz-adv-x="604" 
d="M124 7v68q128 -8 168 -8q112 0 112 77q0 31 -18 50.5t-70 42.5l-82 36q-65 29 -94.5 66t-29.5 96q0 120 152 138v91h80v-88q87 -4 137 -18v-69q-4 0 -35 3.5t-64.5 5.5t-67.5 2q-55 0 -83.5 -14t-28.5 -50q0 -30 15.5 -49.5t61.5 -39.5l83 -36q73 -31 103.5 -67t30.5 -99
q0 -62 -38.5 -101.5t-113.5 -49.5v-97h-80v93q-84 3 -138 17z" />
    <glyph glyph-name="cent.taboldstyle" horiz-adv-x="601" 
d="M488 561v-68q-82 5 -133 5q-81 0 -116.5 -38.5t-35.5 -130.5v-92q0 -91 35.5 -130t116.5 -39q75 0 133 8v-71q-44 -12 -111 -14v-108h-81v110q-183 27 -183 244v92q0 216 183 244v105h82v-103q65 -3 110 -14z" />
    <glyph glyph-name="zero.denominator" 
d="M407 194q0 -100 -46.5 -151.5t-133.5 -51.5t-133 51.5t-46 151.5v58q0 100 46 151.5t133 51.5t133.5 -51.5t46.5 -151.5v-58zM325 194v58q0 76 -26 106.5t-72 30.5t-71.5 -30.5t-25.5 -106.5v-58q0 -76 25.5 -106t71.5 -30t72 30.5t26 105.5z" />
    <glyph glyph-name="one.denominator" horiz-adv-x="430" 
d="M366 0h-290v59l104 3v310l-105 -33v67l128 43h59v-387l104 -3v-59z" />
    <glyph glyph-name="two.denominator" horiz-adv-x="445" 
d="M68 386v54q60 15 149 15q84 0 125 -26.5t41 -84.5q0 -46 -27.5 -77.5t-99.5 -66.5q-73 -36 -93.5 -59.5t-20.5 -70.5v-6h235v-64h-316v56q0 75 31 114t115 80q61 30 77.5 47t16.5 45t-21.5 40t-71.5 12q-40 0 -140 -8z" />
    <glyph glyph-name="three.denominator" horiz-adv-x="442" 
d="M205 -9q-89 0 -141 15v55q100 -8 135 -8q53 0 76 15t23 58q0 40 -14.5 57t-62.5 17h-136v60h137q47 0 61.5 18t14.5 54q0 34 -21 47.5t-78 13.5q-35 0 -135 -8v55q52 15 141 15t132 -27t43 -92q0 -78 -57 -106q57 -26 57 -106q0 -71 -43.5 -102t-131.5 -31z" />
    <glyph glyph-name="four.denominator" horiz-adv-x="463" 
d="M351 0h-82v110h-225v66l229 270h78v-275h70v-61h-70v-110zM272 171v181l-153 -181h153z" />
    <glyph glyph-name="five.denominator" horiz-adv-x="445" 
d="M368 383h-211l-11 -111h61q95 0 136.5 -29.5t41.5 -100.5q0 -82 -55 -116.5t-141 -34.5q-59 0 -128 15v56q84 -10 133 -10q61 0 84.5 19.5t23.5 70.5q0 40 -21.5 54.5t-84.5 14.5h-128l22 235h278v-63z" />
    <glyph glyph-name="six.denominator" horiz-adv-x="470" 
d="M384 440v-57q-74 9 -137 9q-69 0 -89.5 -25.5t-20.5 -83.5v-15q47 13 103 13q29 0 51 -2.5t45 -10t37.5 -21t24 -36.5t9.5 -55v-19q0 -43 -16 -73t-43 -45t-54.5 -21.5t-57.5 -6.5q-89 0 -134.5 39.5t-45.5 148.5v98q0 91 41 134.5t144 43.5q80 0 143 -15zM325 137v17
q0 44 -22 58t-69 14q-53 0 -97 -11v-45q0 -70 25 -94.5t74 -24.5q39 0 64 21t25 65z" />
    <glyph glyph-name="seven.denominator" horiz-adv-x="441" 
d="M65 383v63h322v-73l-207 -373h-89l216 383h-242z" />
    <glyph glyph-name="eight.denominator" horiz-adv-x="482" 
d="M417 129q0 -38 -10.5 -64.5t-26 -40.5t-42 -21.5t-48.5 -9.5t-55 -2t-54 2t-47.5 10t-42 22.5t-26 42t-10.5 66.5q0 66 51 97q-49 32 -49 101q0 38 14.5 64t42 38t56 16.5t67.5 4.5q38 0 66 -4.5t55.5 -16.5t42 -38t14.5 -64q0 -69 -49 -101q51 -31 51 -102zM336 130
q-1 40 -13.5 56.5t-46.5 16.5h-80q-34 0 -47 -17t-13 -56q0 -50 24.5 -65t76.5 -15q51 0 75 15t24 65zM334 330q0 40 -24.5 53t-74.5 13q-48 0 -73 -13.5t-25 -52.5q0 -36 13 -53t46 -17h80q33 0 45.5 17t12.5 53z" />
    <glyph glyph-name="nine.denominator" horiz-adv-x="470" 
d="M77 6v56q104 -9 138 -9q68 0 89 26t21 84v16q-47 -13 -103 -13q-29 0 -51 2.5t-45 10t-37.5 21t-24 36.5t-9.5 55v19q0 43 16 73t43 45t54.5 21t58.5 6q88 0 133.5 -39t45.5 -148v-98q0 -91 -41.5 -135t-143.5 -44q-65 0 -144 15zM325 231v46q0 70 -24.5 94.5t-74.5 24.5
q-39 0 -64 -21t-25 -65v-17q0 -44 21.5 -58t68.5 -14q53 0 98 10z" />
    <glyph glyph-name="comma.denominator" horiz-adv-x="252" 
d="M193 89l-72 -142h-68l55 142h85z" />
    <glyph glyph-name="period.denominator" horiz-adv-x="202" 
d="M140 0h-78v89h78v-89z" />
    <glyph glyph-name="cent.denominator" horiz-adv-x="385" 
d="M236 385q-61 0 -85 -32t-24 -105v-53q0 -73 23 -104.5t86 -31.5q42 0 100 5v-63q-32 -9 -85 -11v-74h-69v78q-135 25 -135 201v53q0 180 135 202v72h69v-69q49 -1 85 -10v-64q-58 6 -100 6z" />
    <glyph glyph-name="dollar.denominator" horiz-adv-x="417" 
d="M58 5v62q100 -8 137 -8q87 0 87 58q0 21 -13 34t-48 28l-72 31q-53 23 -78 50t-25 76q0 101 125 115v75h73v-73q70 -3 108 -13v-63q-95 10 -136 10q-87 0 -87 -49q0 -21 12.5 -34t45.5 -26l73 -28q54 -21 80 -50.5t26 -77.5q0 -111 -122 -128v-78h-73v75q-57 1 -113 14z
" />
    <glyph glyph-name="hyphen.denominator" horiz-adv-x="261" 
d="M203 169h-146v61h146v-61z" />
    <glyph glyph-name="parenleft.denominator" horiz-adv-x="282" 
d="M235 -78h-79q-35 42 -62 109.5t-27 152.5q0 87 27 156t62 112h79q-85 -119 -85 -268q0 -143 85 -262z" />
    <glyph glyph-name="parenright.denominator" horiz-adv-x="282" 
d="M215 184q0 -85 -27 -152.5t-62 -109.5h-79q85 116 85 262v4q0 148 -85 264h79q35 -42 62 -111t27 -153v-4z" />
    <glyph glyph-name="zero.numerator" 
d="M407 494q0 -100 -46.5 -151.5t-133.5 -51.5t-133 51.5t-46 151.5v58q0 100 46 151.5t133 51.5t133.5 -51.5t46.5 -151.5v-58zM325 494v58q0 76 -26 106.5t-72 30.5t-71.5 -30.5t-25.5 -106.5v-58q0 -76 25.5 -106t71.5 -30t72 30.5t26 105.5z" />
    <glyph glyph-name="one.numerator" horiz-adv-x="430" 
d="M366 300h-290v59l104 3v310l-105 -33v67l128 43h59v-387l104 -3v-59z" />
    <glyph glyph-name="two.numerator" horiz-adv-x="445" 
d="M68 686v54q60 15 149 15q84 0 125 -26.5t41 -84.5q0 -46 -27.5 -77.5t-99.5 -66.5q-73 -36 -93.5 -59.5t-20.5 -70.5v-6h235v-64h-316v56q0 75 31 114t115 80q61 30 77.5 47t16.5 45t-21.5 40t-71.5 12q-40 0 -140 -8z" />
    <glyph glyph-name="three.numerator" horiz-adv-x="442" 
d="M205 291q-89 0 -141 15v55q100 -8 135 -8q53 0 76 15t23 58q0 40 -14.5 57t-62.5 17h-136v60h137q47 0 61.5 18t14.5 54q0 34 -21 47.5t-78 13.5q-35 0 -135 -8v55q52 15 141 15t132 -27t43 -92q0 -78 -57 -106q57 -26 57 -106q0 -71 -43.5 -102t-131.5 -31z" />
    <glyph glyph-name="four.numerator" horiz-adv-x="463" 
d="M351 300h-82v110h-225v66l229 270h78v-275h70v-61h-70v-110zM272 471v181l-153 -181h153z" />
    <glyph glyph-name="five.numerator" horiz-adv-x="445" 
d="M368 683h-211l-11 -111h61q95 0 136.5 -29.5t41.5 -100.5q0 -82 -55 -116.5t-141 -34.5q-59 0 -128 15v56q84 -10 133 -10q61 0 84.5 19.5t23.5 70.5q0 40 -21.5 54.5t-84.5 14.5h-128l22 235h278v-63z" />
    <glyph glyph-name="six.numerator" horiz-adv-x="470" 
d="M384 740v-57q-74 9 -137 9q-69 0 -89.5 -25.5t-20.5 -83.5v-15q47 13 103 13q29 0 51 -2.5t45 -10t37.5 -21t24 -36.5t9.5 -55v-19q0 -43 -16 -73t-43 -45t-54.5 -21.5t-57.5 -6.5q-89 0 -134.5 39.5t-45.5 148.5v98q0 91 41 134.5t144 43.5q80 0 143 -15zM325 437v17
q0 44 -22 58t-69 14q-53 0 -97 -11v-45q0 -70 25 -94.5t74 -24.5q39 0 64 21t25 65z" />
    <glyph glyph-name="seven.numerator" horiz-adv-x="441" 
d="M65 683v63h322v-73l-207 -373h-89l216 383h-242z" />
    <glyph glyph-name="eight.numerator" horiz-adv-x="482" 
d="M417 429q0 -38 -10.5 -64.5t-26 -40.5t-42 -21.5t-48.5 -9.5t-55 -2t-54 2t-47.5 10t-42 22.5t-26 42t-10.5 66.5q0 66 51 97q-49 32 -49 101q0 38 14.5 64t42 38t56 16.5t67.5 4.5q38 0 66 -4.5t55.5 -16.5t42 -38t14.5 -64q0 -69 -49 -101q51 -31 51 -102zM336 430
q-1 40 -13.5 56.5t-46.5 16.5h-80q-34 0 -47 -17t-13 -56q0 -50 24.5 -65t76.5 -15q51 0 75 15t24 65zM334 630q0 40 -24.5 53t-74.5 13q-48 0 -73 -13.5t-25 -52.5q0 -36 13 -53t46 -17h80q33 0 45.5 17t12.5 53z" />
    <glyph glyph-name="nine.numerator" horiz-adv-x="470" 
d="M77 306v56q103 -9 138 -9q68 0 89 26t21 84v16q-47 -13 -103 -13q-29 0 -51 2.5t-45 10t-37.5 21t-24 36.5t-9.5 55v19q0 43 16 73t43 45t54.5 21t58.5 6q88 0 133.5 -39t45.5 -148v-98q0 -91 -41.5 -135t-143.5 -44q-65 0 -144 15zM325 531v46q0 70 -24.5 94.5
t-74.5 24.5q-39 0 -64 -21t-25 -65v-17q0 -44 21.5 -58t68.5 -14q53 0 98 10z" />
    <glyph glyph-name="comma.numerator" horiz-adv-x="252" 
d="M193 392l-72 -142h-68l55 142h85z" />
    <glyph glyph-name="period.numerator" horiz-adv-x="202" 
d="M140 303h-78v89h78v-89z" />
    <glyph glyph-name="cent.numerator" horiz-adv-x="385" 
d="M336 303q-32 -9 -85 -11v-74h-69v78q-135 25 -135 201v53q0 180 135 202v72h69v-69q49 -1 85 -10v-64q-58 6 -100 6q-61 0 -85 -32t-24 -105v-53q0 -73 23 -104.5t86 -31.5q42 0 100 5v-63z" />
    <glyph glyph-name="dollar.numerator" horiz-adv-x="417" 
d="M58 307v62q100 -8 137 -8q87 0 87 58q0 21 -13 34t-48 28l-72 31q-53 23 -78 50t-25 76q0 101 125 115v75h73v-73q70 -3 108 -13v-63q-95 10 -136 10q-87 0 -87 -49q0 -21 12.5 -34t45.5 -26l73 -28q54 -21 80 -50.5t26 -77.5q0 -111 -122 -128v-78h-73v75q-57 1 -113 14
z" />
    <glyph glyph-name="hyphen.numerator" horiz-adv-x="261" 
d="M203 473h-146v61h146v-61z" />
    <glyph glyph-name="parenleft.numerator" horiz-adv-x="282" 
d="M235 225h-79q-35 42 -62 109.5t-27 151.5q0 88 27 157t62 112h79q-85 -120 -85 -269q0 -142 85 -261z" />
    <glyph glyph-name="parenright.numerator" horiz-adv-x="282" 
d="M215 486q0 -84 -27 -151.5t-62 -109.5h-79q85 116 85 261q0 151 -85 269h79q35 -43 62 -112t27 -157z" />
    <glyph glyph-name="parenleft.cap" horiz-adv-x="298" 
d="M259 0h-79q-45 56 -82 157.5t-37 212.5q0 114 36.5 214t82.5 159h79q-115 -163 -115 -373q0 -209 115 -370z" />
    <glyph glyph-name="parenright.cap" horiz-adv-x="298" 
d="M252 370q0 -111 -37 -212.5t-82 -157.5h-79q115 161 115 370q0 210 -115 373h79q46 -59 82.5 -159t36.5 -214z" />
    <glyph glyph-name="bracketleft.cap" horiz-adv-x="328" 
d="M275 0h-185v743h185v-71h-102v-602h102v-70z" />
    <glyph glyph-name="bracketright.cap" horiz-adv-x="328" 
d="M237 0h-185v70h103v602h-103v71h185v-743z" />
    <glyph glyph-name="braceleft.cap" horiz-adv-x="342" 
d="M293 0h-51q-88 0 -117.5 31t-29.5 97v109q0 44 -10 63.5t-42 41.5v58q32 22 42 41.5t10 63.5v109q0 68 29 98.5t118 30.5h51v-73h-51q-42 0 -52.5 -10t-10.5 -46v-109q0 -51 -13 -81t-45 -53q32 -24 45.5 -54t13.5 -80v-109q0 -36 10 -46t52 -10h51v-72z" />
    <glyph glyph-name="braceright.cap" horiz-adv-x="342" 
d="M293 342q-32 -22 -42 -41.5t-10 -63.5v-109q0 -66 -29.5 -97t-117.5 -31h-51v72h51q42 0 52 10t10 46v109q0 50 13.5 80t45.5 54q-32 23 -45 53t-13 81v109q0 36 -10.5 46t-52.5 10h-51v73h51q89 0 118 -30.5t29 -98.5v-109q0 -44 10 -63.5t42 -41.5v-58z" />
    <glyph glyph-name="exclamdown.cap" horiz-adv-x="251" 
d="M80 743h91v-135h-91v135zM165 550l9 -581h-97l10 581h78z" />
    <glyph glyph-name="questiondown.cap" horiz-adv-x="472" 
d="M277 -44q-103 0 -156 38.5t-53 124.5v8q0 49 22.5 92.5t81.5 102.5q64 65 79.5 97.5t15.5 88.5v42h88v-42q0 -70 -18 -115t-81 -106q-57 -55 -76 -88t-19 -72v-8q0 -48 30 -66t94 -18q49 0 157 12v-68q-87 -23 -165 -23zM355 605h-90v138h90v-138z" />
    <glyph glyph-name="guillemotleft.cap" horiz-adv-x="676" 
d="M619 181h-106l-163 208l163 206h106l-158 -206zM167 389l158 -208h-106l-163 208l163 206h106z" />
    <glyph glyph-name="guillemotright.cap" horiz-adv-x="676" 
d="M162 181h-106l158 208l-158 206h106l163 -206zM350 181l158 208l-158 206h106l163 -206l-163 -208h-106z" />
    <glyph glyph-name="guilsinglleft.cap" horiz-adv-x="382" 
d="M324 181h-104l-163 208l163 206h104l-159 -206z" />
    <glyph glyph-name="guilsinglright.cap" horiz-adv-x="382" 
d="M324 389l-163 -208h-104l159 208l-159 206h104z" />
    <glyph glyph-name="hyphen.cap" horiz-adv-x="396" 
d="M321 355h-247v75h247v-75z" />
    <glyph glyph-name="endash.cap" horiz-adv-x="515" 
d="M440 355h-366v75h366v-75z" />
    <glyph glyph-name="emdash.cap" horiz-adv-x="698" 
d="M624 355h-550v75h550v-75z" />
    <glyph glyph-name="periodcentered.cap" horiz-adv-x="252" 
d="M171 325h-91v138h91v-138z" />
    <glyph glyph-name="at.cap" horiz-adv-x="834" 
d="M779 466q0 -71 -18 -126t-58 -98.5t-110.5 -66.5t-168.5 -23q-104 0 -151.5 36.5t-47.5 113.5q0 84 13 140.5t40 87t60.5 43t81.5 12.5q83 0 163 -20l-33 -329q158 36 158 231q0 116 -63 171.5t-193 55.5q-139 0 -214.5 -67.5t-102.5 -226.5q-12 -70 -12 -138
q0 -101 56.5 -158t195.5 -57q106 0 178 9v-50q-95 -15 -177 -15q-322 0 -322 271q0 75 12 145q30 183 123.5 265t262.5 82q163 0 245 -74.5t82 -213.5zM491 507q-25 4 -70 4q-29 0 -47 -6.5t-34.5 -27t-24 -64t-7.5 -111.5q0 -46 25.5 -63.5t88.5 -17.5q26 0 42 1z" />
    <glyph glyph-name="T_h" horiz-adv-x="1093" 
d="M1018 0h-90v348q0 80 -22.5 109t-81.5 29q-80 0 -160 -39v-447h-90v661h-223v-661h-92v661h-229v82h634v-224q88 45 178 45t133 -52.5t43 -160.5v-351z" />
    <glyph glyph-name="A.alt" horiz-adv-x="663" 
d="M25 0l217 664l-58 5v74h211l243 -743h-98l-77 243h-266l-79 -243h-93zM435 327l-70 217q-18 55 -30 122h-10q-16 -80 -30 -122l-71 -217h211z" />
    <glyph glyph-name="B.alt" horiz-adv-x="639" 
d="M85 0v661l-54 7v75h250q59 0 101 -4t81.5 -16t63.5 -33t38.5 -55.5t14.5 -82.5v-9q0 -51 -25.5 -95t-75.5 -65q53 -20 79 -63.5t26 -99.5v-11q0 -52 -16 -90t-41.5 -61t-67 -36t-84 -17.5t-99.5 -4.5h-191zM491 209v11q0 60 -37 93t-128 33h-149v-265h99q114 0 164.5 25
t50.5 103zM487 543v9q0 30 -9.5 50.5t-24.5 32t-44 17.5t-55.5 7.5t-72.5 1.5h-104v-236h149q91 0 126 30t35 88z" />
    <glyph glyph-name="C.alt" horiz-adv-x="557" 
d="M527 78v-75q-102 -17 -172 -17q-54 0 -97 8.5t-82 30.5t-65 58t-41 93.5t-15 133.5v123q0 95 22 160t65 99.5t94 48.5t119 14q87 0 172 -17v-146h-72l-10 78q-87 3 -90 3q-109 0 -158.5 -53.5t-49.5 -186.5v-123q0 -133 49.5 -187t158.5 -54q69 0 172 9z" />
    <glyph glyph-name="D.alt" horiz-adv-x="674" 
d="M85 0v661l-54 8v74h262q167 0 246.5 -81.5t79.5 -228.5v-121q0 -312 -326 -312h-208zM526 312v121q0 123 -58.5 175.5t-182.5 52.5h-108v-580h108q123 0 182 53.5t59 177.5z" />
    <glyph glyph-name="E.alt" horiz-adv-x="580" 
d="M525 661h-348v-234h327v-83h-327v-263h348v-81h-440v664l-54 5v74h494v-82z" />
    <glyph glyph-name="F.alt" horiz-adv-x="570" 
d="M85 0v664l-54 5v74h494v-82h-348v-234h327v-83h-327v-344h-92z" />
    <glyph glyph-name="G.alt" horiz-adv-x="634" 
d="M569 7q-105 -21 -219 -21q-295 0 -295 320v131q0 318 296 318q114 0 218 -19v-144h-72l-11 76q-80 5 -122 5q-52 0 -87.5 -8.5t-67 -33t-46.5 -72.5t-15 -122v-131q0 -135 52 -185.5t162 -50.5q70 0 115 3v233l-106 8v72h198v-379z" />
    <glyph glyph-name="H.alt" horiz-adv-x="726" 
d="M641 0h-92v351h-372v-351h-92v664l-54 5v74h146v-309h372v309h92v-743z" />
    <glyph glyph-name="I.alt" horiz-adv-x="262" 
d="M231 0h-200v73l54 5v586l-54 5v74h200v-74l-54 -5v-586l54 -5v-73z" />
    <glyph glyph-name="J.alt" horiz-adv-x="261" 
d="M230 669l-54 -5v-724q0 -84 -34 -121.5t-119 -37.5q-50 0 -74 8v69h68q44 0 56 17t12 65v724l-54 5v74h199v-74z" />
    <glyph glyph-name="K.alt" horiz-adv-x="634" 
d="M619 0h-126l-311 358v-358h-92v664l-54 5v74h146v-349l319 349h118l-335 -365z" />
    <glyph glyph-name="M.alt" horiz-adv-x="813" 
d="M728 0h-91v483q0 53 5 138h-2q-7 -17 -53 -114l-125 -267h-113l-122 267q-17 38 -53 114h-2q4 -102 4 -138v-483h-91v664l-54 5v74h175l154 -335q4 -8 44 -100h2q5 12 46 102l156 333h120v-743z" />
    <glyph glyph-name="N.alt" horiz-adv-x="706" 
d="M621 0h-131l-262 533q-50 102 -60 126h-2q5 -82 5 -155v-504h-86v664l-54 5v74h186l259 -519q29 -57 60 -127h2q-5 74 -5 163v483h88v-743z" />
    <glyph glyph-name="P.alt" horiz-adv-x="605" 
d="M177 0h-92v664l-54 5v74h234q55 0 97.5 -5t83 -19t66.5 -38t42 -63.5t16 -93.5v-13q0 -55 -16 -95t-42 -64t-66.5 -38.5t-82.5 -19.5t-98 -5h-88v-289zM177 370h88q114 0 163 28t49 113v13q-1 83 -49.5 110t-162.5 27h-88v-291z" />
    <glyph glyph-name="Q.alt" horiz-adv-x="684" 
d="M629 318q0 -145 -62.5 -230t-179.5 -99v-168h-90v168q-117 14 -179.5 98.5t-62.5 230.5v106q0 159 74 245t213 86t213 -86t74 -245v-106zM536 318v106q0 249 -194 249t-194 -249v-106q0 -250 194 -250t194 250z" />
    <glyph glyph-name="R.alt" horiz-adv-x="637" 
d="M617 0h-109l-175 290q-20 -1 -70 -1h-86v-289h-92v664l-54 5v74h229q56 0 99 -5t84 -19.5t68 -38.5t43 -63.5t16 -93.5v-7q0 -159 -139 -207zM477 516v7q0 83 -50 110.5t-167 27.5h-83v-291h86q114 0 164 31t50 115z" />
    <glyph glyph-name="S.alt" horiz-adv-x="585" 
d="M72 7v73q114 -14 212 -14q77 0 114.5 29t37.5 93q0 46 -21.5 74.5t-79.5 54.5l-127 57q-78 35 -115.5 81t-37.5 120q0 180 243 180q128 0 205 -20v-143h-70l-13 79q-51 4 -119 4q-78 0 -115.5 -22.5t-37.5 -77.5q0 -44 21 -71t79 -53l128 -56q80 -36 117 -83.5t37 -123.5
q0 -98 -62 -150t-184 -52q-131 0 -212 21z" />
    <glyph glyph-name="U.alt" horiz-adv-x="699" 
d="M619 309q0 -323 -269 -323q-270 0 -270 323v356l-54 5v73h146v-424q0 -137 39 -193.5t139 -56.5t139 57t39 193v424h91v-434z" />
    <glyph glyph-name="Z.alt" horiz-adv-x="624" 
d="M569 81v-81h-514v102l401 559h-306l-9 -69h-71v151h485v-101l-400 -561h414z" />
    <glyph glyph-name="a.alt" horiz-adv-x="545" 
d="M475 0h-86v37q-73 -51 -175 -51q-164 0 -164 156v20q0 101 62 135.5t191 34.5h82v40q0 72 -23.5 94t-105.5 22q-42 0 -92 -3l-9 -58h-69v113q18 7 69.5 15.5t107.5 8.5q67 0 110 -11.5t65 -38t29.5 -59t7.5 -83.5v-372zM385 100v164h-82q-92 0 -127.5 -19.5t-35.5 -82.5
v-27q0 -44 24 -61.5t68 -17.5q43 0 86.5 14.5t66.5 29.5z" />
    <glyph glyph-name="b.alt" horiz-adv-x="578" 
d="M523 238q0 -131 -60 -191.5t-184 -60.5q-73 0 -202 14v696l-54 5v73h144v-245q67 37 148 37q106 0 157 -57.5t51 -176.5v-94zM433 239v94q0 83 -29.5 118.5t-99.5 35.5q-86 0 -137 -29v-387q63 -5 114 -5q80 0 116 38.5t36 134.5z" />
    <glyph glyph-name="c.alt" horiz-adv-x="477" 
d="M432 5q-60 -19 -157 -19q-111 0 -165.5 64t-54.5 184v83q0 247 220 247q107 0 157 -19v-118h-70l-9 57q-30 3 -65 3q-72 0 -107.5 -36.5t-35.5 -133.5v-83q0 -97 35.5 -134t107.5 -37q48 0 144 10v-68z" />
    <glyph glyph-name="d.alt" horiz-adv-x="578" 
d="M501 0h-87v28q-71 -42 -154 -42q-205 0 -205 235v95q0 138 60 193t167 55q61 0 129 -14v145l-61 5v74h151v-774zM411 97v378q-73 13 -123 13q-74 0 -108.5 -34.5t-34.5 -137.5v-95q0 -82 31.5 -120t100.5 -38q64 0 134 34z" />
    <glyph glyph-name="g.alt" horiz-adv-x="566" 
d="M524 -46q0 -177 -243 -177q-128 0 -182.5 44.5t-54.5 132.5q0 70 51 119q-45 30 -45 80q0 59 57 101q-40 44 -40 126q0 87 48 135.5t173 48.5h236v-61l-56 -9q35 -48 35 -114q0 -183 -218 -183q-79 0 -125 20q-31 -24 -31 -55q0 -36 50 -36h101q48 0 81 -3t66 -13.5
t53 -29t32 -50t12 -76.5zM435 -45q0 60 -31 79t-124 19h-112q-35 -31 -35 -98q0 -56 28.5 -80.5t119.5 -24.5q88 0 121 25t33 80zM419 380q0 58 -27.5 85.5t-106.5 27.5q-80 0 -106 -27.5t-26 -85.5q0 -57 26.5 -84.5t105.5 -27.5t106.5 27.5t27.5 84.5z" />
    <glyph glyph-name="h.alt" horiz-adv-x="596" 
d="M521 0h-90v348q0 80 -23 109t-81 29q-81 0 -161 -39v-447h-89v695l-54 5v74h143v-255q87 45 179 45q90 0 133 -52.5t43 -160.5v-351z" />
    <glyph glyph-name="i.alt" horiz-adv-x="256" 
d="M173 0h-90v471l-54 5v74h144v-550zM174 652h-91v122h91v-122z" />
    <glyph glyph-name="j.alt" horiz-adv-x="256" 
d="M173 -67q0 -88 -30.5 -122t-108.5 -34q-45 0 -67 5v66q5 0 25.5 -0.5t33.5 -0.5q36 0 46.5 17.5t10.5 68.5v538l-54 5v74h144v-617zM174 652h-91v122h91v-122z" />
    <glyph glyph-name="k.alt" horiz-adv-x="522" 
d="M507 0h-119l-222 273v-273h-89v695l-54 5v74h143v-472l221 248h116l-238 -261z" />
    <glyph glyph-name="l.alt" horiz-adv-x="255" 
d="M172 0h-89v695l-54 5v74h143v-774z" />
    <glyph glyph-name="m.alt" horiz-adv-x="856" 
d="M781 0h-90v365q0 30 -0.5 43.5t-4.5 32t-12.5 26.5t-24.5 14t-40 6q-60 0 -139 -46q4 -26 4 -76v-365h-90v365q0 30 -0.5 43.5t-4 32t-11.5 26.5t-22.5 14t-36.5 6q-60 0 -143 -48v-439h-89v471l-54 5v74h143v-43q78 57 164 57q87 0 121 -59q90 59 170 59q46 0 78 -13.5
t47.5 -31t24 -49t9.5 -51t1 -54.5v-365z" />
    <glyph glyph-name="n.alt" horiz-adv-x="596" 
d="M521 0h-90v351q0 78 -18.5 107t-73.5 29q-61 0 -173 -49v-438h-89v471l-54 5v74h143v-43q111 57 183 57q103 0 137.5 -51t34.5 -162v-351z" />
    <glyph glyph-name="p.alt" horiz-adv-x="577" 
d="M166 -210h-89v681l-54 5v74h140v-37q73 51 160 51q98 0 148.5 -60.5t50.5 -195.5v-54q0 -77 -17.5 -131t-50 -83t-72.5 -41.5t-93 -12.5q-63 0 -123 16v-212zM433 254v54q0 98 -30 137.5t-94 39.5q-60 0 -143 -41v-367q75 -15 123 -15q73 0 108.5 39.5t35.5 152.5z" />
    <glyph glyph-name="r.alt" horiz-adv-x="376" 
d="M166 0h-89v471l-54 5v74h142v-44q74 58 196 58v-80q-54 0 -108.5 -13.5t-86.5 -33.5v-437z" />
    <glyph glyph-name="s.alt" horiz-adv-x="482" 
d="M57 8v70q126 -15 177 -15q67 0 92.5 18t25.5 56q0 37 -20 55.5t-91 48.5l-40 17q-81 34 -116 72.5t-35 96.5q0 70 48 103.5t151 33.5q50 0 103 -7t71 -13v-117h-70l-10 56q-58 4 -90 4q-63 0 -88 -12t-25 -48q0 -32 19 -51t77 -44l40 -17q98 -44 132 -79t34 -97
q0 -153 -205 -153q-51 0 -106 8t-74 14z" />
    <glyph glyph-name="u.alt" horiz-adv-x="596" 
d="M429 550h90v-550h-90v43q-112 -57 -191 -57q-94 0 -128.5 55.5t-34.5 157.5v272l-54 5v74h143v-351q0 -78 18.5 -107t74.5 -29q60 0 172 49v438z" />
    <glyph glyph-name="y.alt" horiz-adv-x="599" 
d="M522 -31q0 -95 -44.5 -143.5t-167.5 -48.5q-55 0 -118 7.5t-84 12.5v65q120 -8 202 -8q76 0 98.5 26t22.5 89v28q-60 -10 -111 -10q-122 0 -183 58t-61 197v308h89v-309q0 -102 35 -140t121 -38q66 0 111 9v478h90v-581z" />
    <glyph glyph-name="z.alt" horiz-adv-x="488" 
d="M443 74v-74h-403v101l306 374h-214l-9 -48h-70v123h389v-93l-311 -383h312z" />
    <glyph glyph-name="a.alt2" horiz-adv-x="578" 
d="M501 0h-87v28q-71 -42 -154 -42q-205 0 -205 235v95q0 139 61 193.5t175 54.5q111 0 210 -14v-550zM411 97v385q-65 6 -119 6q-77 0 -112 -34.5t-35 -137.5v-95q0 -82 31.5 -120t100.5 -38q64 0 134 34z" />
    <glyph glyph-name="u.alt2" horiz-adv-x="594" 
d="M519 251q0 -130 -51.5 -197.5t-171.5 -67.5q-117 0 -169 68t-52 197v299h89v-299q0 -96 29.5 -141t102.5 -45t103 45t30 141v299h90v-299z" />
    <glyph glyph-name="Aacute.alt" horiz-adv-x="663" 
d="M502 943l-150 -154h-90l131 154h109zM25 0l217 664l-58 5v74h211l243 -743h-98l-77 243h-266l-79 -243h-93zM435 327l-70 217q-18 55 -30 122h-10q-16 -80 -30 -122l-71 -217h211z" />
    <glyph glyph-name="Acircumflex.alt" horiz-adv-x="663" 
d="M525 789h-90l-105 105l-104 -105h-90l135 154h119zM25 0l217 664l-58 5v74h211l243 -743h-98l-77 243h-266l-79 -243h-93zM435 327l-70 217q-18 55 -30 122h-10q-16 -80 -30 -122l-71 -217h211z" />
    <glyph glyph-name="Adieresis.alt" horiz-adv-x="663" 
d="M485 809h-81v118h81v-118zM257 927v-118h-82v118h82zM25 0l217 664l-58 5v74h211l243 -743h-98l-77 243h-266l-79 -243h-93zM435 327l-70 217q-18 55 -30 122h-10q-16 -80 -30 -122l-71 -217h211z" />
    <glyph glyph-name="Agrave.alt" horiz-adv-x="663" 
d="M402 789h-90l-150 154h109zM25 0l217 664l-58 5v74h211l243 -743h-98l-77 243h-266l-79 -243h-93zM435 327l-70 217q-18 55 -30 122h-10q-16 -80 -30 -122l-71 -217h211z" />
    <glyph glyph-name="Aring.alt" horiz-adv-x="663" 
d="M447 888q0 -55 -31.5 -82t-83.5 -27q-53 0 -85.5 27t-32.5 82t32.5 82t85.5 27q52 0 83.5 -27t31.5 -82zM387 888q0 55 -55 55q-56 0 -56 -55t56 -55q55 0 55 55zM25 0l217 664l-58 5v74h211l243 -743h-98l-77 243h-266l-79 -243h-93zM435 327l-70 217q-18 55 -30 122
h-10q-16 -80 -30 -122l-71 -217h211z" />
    <glyph glyph-name="Atilde.alt" horiz-adv-x="663" 
d="M529 906q0 -60 -22 -92t-75 -32q-50 0 -102 41l-41 33q-32 28 -57 28q-20 0 -27.5 -15t-7.5 -46v-34h-65v34q0 124 100 124q49 0 97 -38l42 -34q36 -29 59 -29q21 0 28 14t7 46v34h64v-34zM25 0l217 664l-58 5v74h211l243 -743h-98l-77 243h-266l-79 -243h-93zM435 327
l-70 217q-18 55 -30 122h-10q-16 -80 -30 -122l-71 -217h211z" />
    <glyph glyph-name="Ccedilla.alt" horiz-adv-x="557" 
d="M392 -68l-136 -142h-92l116 142h112zM527 78v-75q-102 -17 -172 -17q-54 0 -97 8.5t-82 30.5t-65 58t-41 93.5t-15 133.5v123q0 95 22 160t65 99.5t94 48.5t119 14q87 0 172 -17v-146h-72l-10 78q-87 3 -90 3q-109 0 -158.5 -53.5t-49.5 -186.5v-123q0 -133 49.5 -187
t158.5 -54q69 0 172 9z" />
    <glyph glyph-name="Eacute.alt" horiz-adv-x="580" 
d="M479 943l-150 -154h-90l131 154h109zM525 661h-348v-234h327v-83h-327v-263h348v-81h-440v664l-54 5v74h494v-82z" />
    <glyph glyph-name="Ecircumflex.alt" horiz-adv-x="580" 
d="M494 789h-90l-105 105l-104 -105h-90l135 154h119zM525 661h-348v-234h327v-83h-327v-263h348v-81h-440v664l-54 5v74h494v-82z" />
    <glyph glyph-name="Edieresis.alt" horiz-adv-x="580" 
d="M445 808h-81v118h81v-118zM217 926v-118h-82v118h82zM525 661h-348v-234h327v-83h-327v-263h348v-81h-440v664l-54 5v74h494v-82z" />
    <glyph glyph-name="Egrave.alt" horiz-adv-x="580" 
d="M357 789h-90l-150 154h109zM525 661h-348v-234h327v-83h-327v-263h348v-81h-440v664l-54 5v74h494v-82z" />
    <glyph glyph-name="Eth.alt" horiz-adv-x="674" 
d="M619 312q0 -312 -326 -312h-208v345h-53v81h53v235l-54 8v74h262q167 0 246.5 -81.5t79.5 -228.5v-121zM177 345v-264h108q123 0 182 53.5t59 177.5v121q0 123 -58.5 175.5t-182.5 52.5h-108v-235h150v-81h-150z" />
    <glyph glyph-name="Iacute.alt" horiz-adv-x="262" 
d="M291 943l-150 -154h-90l131 154h109zM231 0h-200v73l54 5v586l-54 5v74h200v-74l-54 -5v-586l54 -5v-73z" />
    <glyph glyph-name="Icircumflex.alt" horiz-adv-x="262" 
d="M325 789h-90l-105 105l-104 -105h-90l135 154h119zM231 0h-200v73l54 5v586l-54 5v74h200v-74l-54 -5v-586l54 -5v-73z" />
    <glyph glyph-name="Idieresis.alt" horiz-adv-x="262" 
d="M285 809h-81v118h81v-118zM57 927v-118h-82v118h82zM231 0h-200v73l54 5v586l-54 5v74h200v-74l-54 -5v-586l54 -5v-73z" />
    <glyph glyph-name="Igrave.alt" horiz-adv-x="262" 
d="M214 789h-90l-150 154h109zM231 0h-200v73l54 5v586l-54 5v74h200v-74l-54 -5v-586l54 -5v-73z" />
    <glyph glyph-name="Ntilde.alt" horiz-adv-x="706" 
d="M551 906q0 -60 -22 -92t-75 -32q-50 0 -102 41l-41 33q-32 28 -57 28q-20 0 -27.5 -15t-7.5 -46v-34h-65v34q0 124 100 124q49 0 97 -38l42 -34q36 -29 59 -29q21 0 28 14t7 46v34h64v-34zM621 0h-131l-262 533q-50 102 -60 126h-2q5 -82 5 -155v-504h-86v664l-54 5v74
h186l259 -519q29 -57 60 -127h2q-5 74 -5 163v483h88v-743z" />
    <glyph glyph-name="Scaron.alt" horiz-adv-x="585" 
d="M98 943h90l104 -106l105 106h90l-135 -154h-119zM284 -14q-131 0 -212 21v73q114 -14 212 -14q77 0 114.5 29t37.5 93q0 46 -21.5 74.5t-79.5 54.5l-127 57q-78 35 -115.5 81t-37.5 120q0 180 243 180q128 0 205 -20v-143h-70l-13 79q-51 4 -119 4q-78 0 -115.5 -22.5
t-37.5 -77.5q0 -44 21 -71t79 -53l128 -56q80 -36 117 -83.5t37 -123.5q0 -98 -62 -150t-184 -52z" />
    <glyph glyph-name="Uacute.alt" horiz-adv-x="699" 
d="M526 943l-150 -154h-90l131 154h109zM619 309q0 -323 -269 -323q-270 0 -270 323v356l-54 5v73h146v-424q0 -137 39 -193.5t139 -56.5t139 57t39 193v424h91v-434z" />
    <glyph glyph-name="Ucircumflex.alt" horiz-adv-x="699" 
d="M543 789h-90l-105 105l-104 -105h-90l135 154h119zM619 309q0 -323 -269 -323q-270 0 -270 323v356l-54 5v73h146v-424q0 -137 39 -193.5t139 -56.5t139 57t39 193v424h91v-434z" />
    <glyph glyph-name="Udieresis.alt" horiz-adv-x="699" 
d="M503 809h-81v118h81v-118zM275 927v-118h-82v118h82zM619 309q0 -323 -269 -323q-270 0 -270 323v356l-54 5v73h146v-424q0 -137 39 -193.5t139 -56.5t139 57t39 193v424h91v-434z" />
    <glyph glyph-name="Ugrave.alt" horiz-adv-x="699" 
d="M401 789h-90l-150 154h109zM619 309q0 -323 -269 -323q-270 0 -270 323v356l-54 5v73h146v-424q0 -137 39 -193.5t139 -56.5t139 57t39 193v424h91v-434z" />
    <glyph glyph-name="Zcaron.alt" horiz-adv-x="624" 
d="M123 943h90l104 -106l105 106h90l-135 -154h-119zM569 81v-81h-514v102l401 559h-306l-9 -69h-71v151h485v-101l-400 -561h414z" />
    <glyph glyph-name="aacute.alt" horiz-adv-x="545" 
d="M450 770l-150 -154h-90l131 154h109zM475 0h-86v37q-73 -51 -175 -51q-164 0 -164 156v20q0 101 62 135.5t191 34.5h82v40q0 72 -23.5 94t-105.5 22q-42 0 -92 -3l-9 -58h-69v113q18 7 69.5 15.5t107.5 8.5q67 0 110 -11.5t65 -38t29.5 -59t7.5 -83.5v-372zM385 100v164
h-82q-92 0 -127.5 -19.5t-35.5 -82.5v-27q0 -44 24 -61.5t68 -17.5q43 0 86.5 14.5t66.5 29.5z" />
    <glyph glyph-name="acircumflex.alt" horiz-adv-x="545" 
d="M474 616h-90l-105 105l-104 -105h-90l135 154h119zM475 0h-86v37q-73 -51 -175 -51q-164 0 -164 156v20q0 101 62 135.5t191 34.5h82v40q0 72 -23.5 94t-105.5 22q-42 0 -92 -3l-9 -58h-69v113q18 7 69.5 15.5t107.5 8.5q67 0 110 -11.5t65 -38t29.5 -59t7.5 -83.5v-372z
M385 100v164h-82q-92 0 -127.5 -19.5t-35.5 -82.5v-27q0 -44 24 -61.5t68 -17.5q43 0 86.5 14.5t66.5 29.5z" />
    <glyph glyph-name="adieresis.alt" horiz-adv-x="545" 
d="M435 643h-81v118h81v-118zM207 761v-118h-82v118h82zM475 0h-86v37q-73 -51 -175 -51q-164 0 -164 156v20q0 101 62 135.5t191 34.5h82v40q0 72 -23.5 94t-105.5 22q-42 0 -92 -3l-9 -58h-69v113q18 7 69.5 15.5t107.5 8.5q67 0 110 -11.5t65 -38t29.5 -59t7.5 -83.5
v-372zM385 100v164h-82q-92 0 -127.5 -19.5t-35.5 -82.5v-27q0 -44 24 -61.5t68 -17.5q43 0 86.5 14.5t66.5 29.5z" />
    <glyph glyph-name="agrave.alt" horiz-adv-x="545" 
d="M349 616h-90l-150 154h109zM475 0h-86v37q-73 -51 -175 -51q-164 0 -164 156v20q0 101 62 135.5t191 34.5h82v40q0 72 -23.5 94t-105.5 22q-42 0 -92 -3l-9 -58h-69v113q18 7 69.5 15.5t107.5 8.5q67 0 110 -11.5t65 -38t29.5 -59t7.5 -83.5v-372zM385 100v164h-82
q-92 0 -127.5 -19.5t-35.5 -82.5v-27q0 -44 24 -61.5t68 -17.5q43 0 86.5 14.5t66.5 29.5z" />
    <glyph glyph-name="ampersand.alt" horiz-adv-x="762" 
d="M707 0h-120l-53 53q-84 -67 -221 -67q-109 0 -175.5 43.5t-66.5 142.5v7q0 64 28.5 111.5t108.5 91.5l-10 10q-54 54 -77 93t-23 97v12q0 161 217 161q102 0 154.5 -38t52.5 -123v-12q0 -65 -33 -108.5t-140 -106.5l182 -181q37 73 37 187v25h82v-25q0 -158 -56 -250
l113 -111v-12zM475 113l-207 210q-57 -29 -80 -62.5t-23 -81.5v-7q0 -108 147 -108q103 0 163 49zM430 583v11q0 48 -27.5 65t-87.5 17q-61 0 -92.5 -17t-31.5 -65v-12q0 -41 15.5 -65t74.5 -83l8 -8q87 50 114 80.5t27 76.5z" />
    <glyph glyph-name="aring.alt" horiz-adv-x="545" 
d="M396 715q0 -55 -31.5 -82t-83.5 -27q-53 0 -85.5 27t-32.5 82t32.5 82t85.5 27q52 0 83.5 -27t31.5 -82zM336 715q0 55 -55 55q-56 0 -56 -55t56 -55q55 0 55 55zM475 0h-86v37q-73 -51 -175 -51q-164 0 -164 156v20q0 101 62 135.5t191 34.5h82v40q0 72 -23.5 94
t-105.5 22q-42 0 -92 -3l-9 -58h-69v113q18 7 69.5 15.5t107.5 8.5q67 0 110 -11.5t65 -38t29.5 -59t7.5 -83.5v-372zM385 100v164h-82q-92 0 -127.5 -19.5t-35.5 -82.5v-27q0 -44 24 -61.5t68 -17.5q43 0 86.5 14.5t66.5 29.5z" />
    <glyph glyph-name="atilde.alt" horiz-adv-x="545" 
d="M478 736q0 -60 -22 -92t-75 -32q-50 0 -102 41l-41 33q-32 28 -57 28q-20 0 -27.5 -15t-7.5 -46v-34h-65v34q0 124 100 124q49 0 97 -38l42 -34q36 -29 59 -29q21 0 28 14t7 46v34h64v-34zM475 0h-86v37q-73 -51 -175 -51q-164 0 -164 156v20q0 101 62 135.5t191 34.5h82
v40q0 72 -23.5 94t-105.5 22q-42 0 -92 -3l-9 -58h-69v113q18 7 69.5 15.5t107.5 8.5q67 0 110 -11.5t65 -38t29.5 -59t7.5 -83.5v-372zM385 100v164h-82q-92 0 -127.5 -19.5t-35.5 -82.5v-27q0 -44 24 -61.5t68 -17.5q43 0 86.5 14.5t66.5 29.5z" />
    <glyph glyph-name="ccedilla.alt" horiz-adv-x="477" 
d="M357 -68l-136 -142h-92l116 142h112zM432 5q-60 -19 -157 -19q-111 0 -165.5 64t-54.5 184v83q0 247 220 247q107 0 157 -19v-118h-70l-9 57q-30 3 -65 3q-72 0 -107.5 -36.5t-35.5 -133.5v-83q0 -97 35.5 -134t107.5 -37q48 0 144 10v-68z" />
    <glyph glyph-name="dotlessi.alt" horiz-adv-x="256" 
d="M173 0h-90v471l-54 5v74h144v-550z" />
    <glyph glyph-name="iacute.alt" horiz-adv-x="256" 
d="M173 0h-90v471l-54 5v74h144v-550zM293 770l-150 -154h-90l131 154h109z" />
    <glyph glyph-name="icircumflex.alt" horiz-adv-x="256" 
d="M173 0h-90v471l-54 5v74h144v-550zM323 616h-90l-105 105l-104 -105h-90l135 154h119z" />
    <glyph glyph-name="idieresis.alt" horiz-adv-x="256" 
d="M173 0h-90v471l-54 5v74h144v-550zM286 643h-81v118h81v-118zM58 761v-118h-82v118h82z" />
    <glyph glyph-name="igrave.alt" horiz-adv-x="256" 
d="M173 0h-90v471l-54 5v74h144v-550zM203 616h-90l-150 154h109z" />
    <glyph glyph-name="lslash.alt" horiz-adv-x="255" 
d="M237 447l-65 -64v-383h-89v295l-62 -61v109l62 61v291l-54 5v74h143v-282l65 64v-109z" />
    <glyph glyph-name="ntilde.alt" horiz-adv-x="596" 
d="M503 736q0 -60 -22 -92t-75 -32q-50 0 -102 41l-41 33q-32 28 -57 28q-20 0 -27.5 -15t-7.5 -46v-34h-65v34q0 124 100 124q49 0 97 -38l42 -34q36 -29 59 -29q21 0 28 14t7 46v34h64v-34zM521 0h-90v351q0 78 -18.5 107t-73.5 29q-61 0 -173 -49v-438h-89v471l-54 5v74
h143v-43q111 57 183 57q103 0 137.5 -51t34.5 -162v-351z" />
    <glyph glyph-name="scaron.alt" horiz-adv-x="482" 
d="M51 770h90l104 -106l105 106h90l-135 -154h-119zM57 8v70q126 -15 177 -15q67 0 92.5 18t25.5 56q0 37 -20 55.5t-91 48.5l-40 17q-81 34 -116 72.5t-35 96.5q0 70 48 103.5t151 33.5q50 0 103 -7t71 -13v-117h-70l-10 56q-58 4 -90 4q-63 0 -88 -12t-25 -48
q0 -32 19 -51t77 -44l40 -17q98 -44 132 -79t34 -97q0 -153 -205 -153q-51 0 -106 8t-74 14z" />
    <glyph glyph-name="uacute.alt" horiz-adv-x="596" 
d="M482 770l-150 -154h-90l131 154h109zM429 550h90v-550h-90v43q-112 -57 -191 -57q-94 0 -128.5 55.5t-34.5 157.5v272l-54 5v74h143v-351q0 -78 18.5 -107t74.5 -29q60 0 172 49v438z" />
    <glyph glyph-name="ucircumflex.alt" horiz-adv-x="596" 
d="M493 616h-90l-105 105l-104 -105h-90l135 154h119zM429 550h90v-550h-90v43q-112 -57 -191 -57q-94 0 -128.5 55.5t-34.5 157.5v272l-54 5v74h143v-351q0 -78 18.5 -107t74.5 -29q60 0 172 49v438z" />
    <glyph glyph-name="udieresis.alt" horiz-adv-x="596" 
d="M449 643h-81v118h81v-118zM221 761v-118h-82v118h82zM429 550h90v-550h-90v43q-112 -57 -191 -57q-94 0 -128.5 55.5t-34.5 157.5v272l-54 5v74h143v-351q0 -78 18.5 -107t74.5 -29q60 0 172 49v438z" />
    <glyph glyph-name="ugrave.alt" horiz-adv-x="596" 
d="M366 616h-90l-150 154h109zM429 550h90v-550h-90v43q-112 -57 -191 -57q-94 0 -128.5 55.5t-34.5 157.5v272l-54 5v74h143v-351q0 -78 18.5 -107t74.5 -29q60 0 172 49v438z" />
    <glyph glyph-name="yacute.alt" horiz-adv-x="599" 
d="M522 -31q0 -95 -44.5 -143.5t-167.5 -48.5q-55 0 -118 7.5t-84 12.5v65q120 -8 202 -8q76 0 98.5 26t22.5 89v28q-60 -10 -111 -10q-122 0 -183.5 58t-61.5 196l1 309h89v-309q0 -102 35 -140t121 -38q66 0 111 9v478h90v-581zM484 770l-150 -154h-90l131 154h109z" />
    <glyph glyph-name="ydieresis.alt" horiz-adv-x="599" 
d="M522 -31q0 -95 -44.5 -143.5t-167.5 -48.5q-55 0 -118 7.5t-84 12.5v65q120 -8 202 -8q76 0 98.5 26t22.5 89v28q-60 -10 -111 -10q-122 0 -183.5 58t-61.5 196l1 309h89v-309q0 -102 35 -140t121 -38q66 0 111 9v478h90v-581zM462 643h-81v118h81v-118zM234 761v-118
h-82v118h82z" />
    <glyph glyph-name="zcaron.alt" horiz-adv-x="488" 
d="M58 770h90l104 -106l105 106h90l-135 -154h-119zM443 74v-74h-403v101l306 374h-214l-9 -48h-70v123h389v-93l-311 -383h312z" />
    <glyph glyph-name="two.alt" horiz-adv-x="590" 
d="M524 81v-81h-460v94q0 81 24 135t69.5 91.5t133.5 85.5q91 49 120.5 83.5t29.5 85.5q0 57 -38 79t-131 22q-54 0 -119 -5l-10 -79h-70v140q115 23 204 23q131 0 193.5 -43t62.5 -137q0 -72 -41 -125.5t-150 -111.5q-117 -63 -152.5 -108.5t-35.5 -134.5v-14h370z" />
    <glyph glyph-name="three.alt" horiz-adv-x="597" 
d="M538 201q0 -117 -65.5 -166t-194.5 -49q-95 0 -203 26v70q9 -1 47.5 -5.5t79 -8t75.5 -3.5q90 0 129.5 28t39.5 108v25q0 59 -24 89.5t-101 30.5h-215v77h215q76 0 100.5 32t24.5 92v13q0 66 -36 91t-134 25q-47 0 -117 -4l-10 -80h-71v141q95 22 200 22q135 0 197.5 -44
t62.5 -151v-13q0 -118 -90 -162q90 -45 90 -159v-25z" />
    <glyph glyph-name="five.alt" horiz-adv-x="585" 
d="M527 207q0 -117 -67.5 -169t-203.5 -52q-97 0 -205 26v70q9 -1 47.5 -5.5t79.5 -8t76 -3.5q100 0 141 31.5t41 110.5v29q0 76 -37 105t-145 29h-188l32 373h402v-151h-70l-10 69h-244l-19 -212h101q142 0 205.5 -50t63.5 -163v-29z" />
    <glyph glyph-name="six.alt" horiz-adv-x="631" 
d="M572 221q0 -58 -18 -102t-44 -68.5t-61.5 -40t-65 -20t-60.5 -4.5q-46 0 -79.5 5t-70.5 22.5t-60.5 48.5t-39 86.5t-15.5 132.5v193q0 143 63 212t215 69q100 0 203 -22v-141h-71l-10 80q-72 4 -120 4q-63 0 -102 -13.5t-57 -43.5t-23.5 -61.5t-5.5 -83.5v-35
q80 23 174 23q42 0 74.5 -4t66.5 -16.5t56 -33.5t36.5 -58t14.5 -87v-42zM480 221v38q0 78 -38 103.5t-122 25.5q-90 0 -170 -19v-93q0 -122 43 -166.5t130 -44.5q68 0 112.5 38.5t44.5 117.5z" />
    <glyph glyph-name="seven.alt" horiz-adv-x="576" 
d="M533 645l-324 -645h-103l341 661h-315l-9 -69h-71v151h481v-98z" />
    <glyph glyph-name="dotlessj" horiz-adv-x="256" 
d="M173 -67q0 -88 -30.5 -122t-108.5 -34q-45 0 -67 5v66q5 0 25.5 -0.5t33.5 -0.5q36 0 46.5 17.5t10.5 68.5v617h90v-617z" />
    <glyph glyph-name="zero.tab" horiz-adv-x="655" 
d="M589 299q0 -154 -67.5 -233.5t-193.5 -79.5t-193.5 79.5t-67.5 233.5v143q0 154 67.5 233.5t193.5 79.5t193.5 -79.5t67.5 -233.5v-143zM497 299v143q0 234 -169 234t-169 -234v-143q0 -234 169 -234t169 234z" />
    <glyph glyph-name="one.tab" horiz-adv-x="655" 
d="M564 0h-436v75l173 6v574l-174 -56v80l198 70h67v-668l172 -6v-75z" />
    <glyph glyph-name="two.tab" horiz-adv-x="655" 
d="M552 0h-460v94q0 81 24 135t69.5 91.5t133.5 85.5q91 49 120.5 83.5t29.5 85.5q0 57 -38 79t-131 22q-99 0 -191 -15v71q100 23 196 23q131 0 193.5 -43t62.5 -137q0 -72 -41 -125.5t-150 -111.5q-117 -63 -152.5 -108.5t-35.5 -134.5v-14h370v-81z" />
    <glyph glyph-name="three.tab" horiz-adv-x="655" 
d="M564 201q0 -117 -65.5 -166t-194.5 -49q-95 0 -203 26v69q115 -16 202 -16q90 0 129.5 28t39.5 108v25q0 59 -24 89.5t-101 30.5h-215v77h215q76 0 100.5 32t24.5 92v13q0 66 -36 91t-134 25q-81 0 -198 -14v71q95 22 200 22q135 0 197.5 -44t62.5 -151v-13
q0 -118 -90 -162q90 -45 90 -159v-25z" />
    <glyph glyph-name="four.tab" horiz-adv-x="655" 
d="M604 196h-113v-196h-92v196h-352v94l339 453h105v-467h113v-80zM399 276v343l-260 -343h260z" />
    <glyph glyph-name="five.tab" horiz-adv-x="655" 
d="M565 207q0 -117 -67.5 -169t-203.5 -52q-95 0 -205 24v73q148 -18 203 -18q100 0 141 31.5t41 110.5v29q0 76 -37 105t-145 29h-188l32 373h402v-82h-324l-19 -212h101q142 0 205.5 -50t63.5 -163v-29z" />
    <glyph glyph-name="seven.tab" horiz-adv-x="655" 
d="M574 645l-324 -645h-103l341 661h-395v82h481v-98z" />
    <glyph glyph-name="six.tab" horiz-adv-x="655" 
d="M583 221q0 -58 -18 -102t-44 -68.5t-61.5 -40t-65 -20t-60.5 -4.5q-46 0 -79.5 5t-70.5 22.5t-60.5 48.5t-39 86.5t-15.5 132.5v193q0 143 63 212t215 69q100 0 203 -22v-72q-117 15 -201 15q-63 0 -102 -13.5t-57 -43.5t-23.5 -61.5t-5.5 -83.5v-35q80 23 174 23
q42 0 74.5 -4t66.5 -16.5t56 -33.5t36.5 -58t14.5 -87v-42zM491 221v38q0 78 -38 103.5t-122 25.5q-90 0 -170 -19v-93q0 -122 43 -166.5t130 -44.5q68 0 112.5 38.5t44.5 117.5z" />
    <glyph glyph-name="eight.tab" horiz-adv-x="655" 
d="M591 214q0 -63 -16.5 -107.5t-39 -67.5t-61.5 -35.5t-69 -15t-77 -2.5h-3q-47 0 -77 2.5t-69 15t-61.5 35.5t-39 67.5t-16.5 107.5v8q0 114 81 164q-78 47 -78 156v11q0 61 22 103t62 62.5t81.5 28.5t94.5 8h3q53 0 94.5 -8t81.5 -28.5t62 -62.5t22 -103v-11
q0 -109 -78 -156q81 -50 81 -164v-8zM499 214v8q0 66 -23.5 95.5t-81.5 29.5h-135q-58 0 -81.5 -29.5t-23.5 -95.5v-8q0 -49 12 -80t37 -45.5t52 -19t70 -4.5h3q43 0 70 4.5t52 19t37 45.5t12 80zM497 542v11q0 74 -42.5 98.5t-126.5 24.5h-3q-84 0 -126.5 -24.5
t-42.5 -98.5v-11q0 -58 23 -87.5t80 -29.5h135q57 0 80 29.5t23 87.5z" />
    <glyph glyph-name="nine.tab" horiz-adv-x="655" 
d="M572 267q0 -143 -63 -212t-215 -69q-100 0 -203 22v72q117 -15 201 -15q63 0 102 13.5t57 43.5t23.5 61.5t5.5 83.5v35q-80 -23 -174 -23q-42 0 -74.5 4t-66.5 16.5t-56 33.5t-36.5 58t-14.5 87v42q0 58 18 102t44 68.5t61.5 40t65 20t60.5 4.5q46 0 79.5 -5t70.5 -22.5
t60.5 -48.5t39 -86.5t15.5 -132.5v-193zM480 372v93q0 122 -43 166.5t-130 44.5q-68 0 -112.5 -38.5t-44.5 -117.5v-38q0 -78 38 -103.5t122 -25.5q90 0 170 19z" />
    <glyph glyph-name="dieresisacute" 
d="M72 645h-81v118h81v-118zM122 616l108 172h109l-126 -172h-91zM466 645h-81v118h81v-118z" />
    <glyph glyph-name="middot" horiz-adv-x="278" 
d="M185 300h-91v138h91v-138z" />
    <glyph glyph-name="dieresisgrave" 
d="M466 644h-82v118h82v-118zM227 787l107 -172h-91l-126 172h110zM72 644h-81v118h81v-118z" />
    <glyph glyph-name="threequartersemdash" horiz-adv-x="918" 
d="M844 255h-770v76h770v-76z" />
    <glyph glyph-name="overscore" horiz-adv-x="574" 
d="M579 819h-585v59h585v-59z" />
    <glyph glyph-name="franc.taboldstyle" horiz-adv-x="608" 
d="M244 0h-92v109h-48v70h48v387h352v-83h-260v-151h246v-80h-246v-73h129v-70h-129v-109z" />
    <glyph glyph-name="lira.taboldstyle" horiz-adv-x="615" 
d="M504 557v-77q-83 9 -137 9q-68 0 -89 -21.5t-21 -88.5v-20h182v-65h-182v-60h182v-64h-182v-15q0 -43 -24 -76h271v-79h-373v67q36 37 36 88v15h-59v64h59v60h-59v65h59v20q0 102 42 147t146 45q77 0 149 -14z" />
    <glyph glyph-name="currency.taboldstyle" horiz-adv-x="637" 
d="M577 100l-65 -65l-78 78q-52 -34 -116 -34q-65 0 -116 34l-79 -78l-64 65l78 77q-34 54 -34 117q0 65 34 116l-78 78l64 63l79 -76q54 34 116 34q64 0 117 -34l77 76l65 -63l-78 -79q35 -56 35 -115q0 -61 -34 -117zM457 294q0 58 -41 99.5t-98 41.5t-97.5 -41.5
t-40.5 -99.5t41 -99.5t97 -41.5q57 0 98 41.5t41 99.5z" />
    <glyph glyph-name="peseta.taboldstyle" horiz-adv-x="562" 
d="M171 0h-87v360h-49v71h49v134q89 9 171 9q100 0 157 -32t68 -111h49v-71h-49q-11 -80 -69.5 -114t-160.5 -34q-35 0 -79 4v-216zM394 391v11q0 56 -35 75.5t-108 19.5q-35 0 -80 -3v-202q45 -3 77 -3q72 0 109 23t37 79z" />
    <glyph glyph-name="commaaccent.alt" horiz-adv-x="535" 
d="M371 758l-67 -142h-104l89 142h82z" />
    <glyph glyph-name="undercommaaccent" horiz-adv-x="535" 
d="M329 -68l-89 -142h-82l67 142h104z" />
    <glyph glyph-name="DieresisAcute" 
d="M72 829h-81v118h81v-118zM122 800l108 172h109l-126 -172h-91zM466 829h-81v118h81v-118z" />
    <glyph glyph-name="DieresisGrave" 
d="M466 829h-82v118h82v-118zM334 800h-91l-126 172h110zM72 829h-81v118h81v-118z" />
    <glyph glyph-name="cyrBreve" 
d="M397 770q-13 -155 -169 -155q-157 0 -168 155h67q5 -52 29 -73.5t72 -21.5t72 21.5t30 73.5h67z" />
    <glyph glyph-name="cyrFlex" 
d="M397 616h-67q-6 52 -30 73.5t-72 21.5t-72 -21.5t-29 -73.5h-67q11 155 168 155q156 0 169 -155z" />
    <glyph glyph-name="dblGrave" 
d="M403 616h-91l-150 154h110zM57 770l132 -154h-91l-150 154h109z" />
    <glyph glyph-name="cyrbreve" 
d="M397 770q-13 -155 -169 -155q-157 0 -168 155h67q5 -52 29 -73.5t72 -21.5t72 21.5t30 73.5h67z" />
    <glyph glyph-name="cyrflex" 
d="M397 616h-67q-6 52 -30 73.5t-72 21.5t-72 -21.5t-29 -73.5h-67q11 155 168 155q156 0 169 -155z" />
    <glyph glyph-name="dblgrave" 
d="M403 616h-91l-150 154h110zM57 770l132 -154h-91l-150 154h109z" />
    <glyph glyph-name="T_h.caron" horiz-adv-x="1093" 
d="M368 788h-119l-135 154h90l104 -106l105 106h90zM1018 0h-90v348q0 80 -22.5 109t-81.5 29q-80 0 -160 -39v-447h-90v661h-223v-661h-92v661h-229v82h634v-224q88 45 178 45t133 -52.5t43 -160.5v-351z" />
    <glyph glyph-name="T_h.commaaccent" horiz-adv-x="1093" 
d="M363 -68l-89 -142h-82l67 142h104zM1018 0h-90v348q0 80 -22.5 109t-81.5 29q-80 0 -160 -39v-447h-90v661h-223v-661h-92v661h-229v82h634v-224q88 45 178 45t133 -52.5t43 -160.5v-351z" />
    <glyph glyph-name="i.dot" horiz-adv-x="261" 
d="M175 0h-90v550h90v-550zM176 652h-91v122h91v-122z" />
    <glyph glyph-name="Amacron.alt" horiz-adv-x="663" 
d="M502 824h-343v70h343v-70zM25 0l217 664l-58 5v74h211l243 -743h-98l-77 243h-266l-79 -243h-93zM435 327l-70 217q-18 55 -30 122h-10q-16 -80 -30 -122l-71 -217h211z" />
    <glyph glyph-name="Abreve.alt" horiz-adv-x="663" 
d="M499 944q-13 -155 -169 -155q-157 0 -168 155h67q5 -52 29 -73.5t72 -21.5t72 21.5t30 73.5h67zM25 0l217 664l-58 5v74h211l243 -743h-98l-77 243h-266l-79 -243h-93zM435 327l-70 217q-18 55 -30 122h-10q-16 -80 -30 -122l-71 -217h211z" />
    <glyph glyph-name="Aringacute.alt" horiz-adv-x="663" 
d="M638 0h-98l-77 243h-266l-79 -243h-93l217 664l-58 5v74h211zM435 327l-70 217q-18 55 -30 122h-10q-16 -80 -30 -122l-71 -217h211zM453 866q0 -55 -31.5 -82t-83.5 -27q-53 0 -85.5 27t-32.5 82t32.5 82t85.5 27q52 0 83.5 -27t31.5 -82zM393 866q0 55 -55 55
q-56 0 -56 -55t56 -55q55 0 55 55zM527 1143l-150 -154h-90l131 154h109z" />
    <glyph glyph-name="Aogonek.alt" horiz-adv-x="663" 
d="M25 0l217 664l-58 5v74h211l243 -743q-82 -37 -109 -63.5t-27 -50.5q0 -46 59 -46q9 0 77 5v-52q-28 -10 -85 -10q-62 0 -94.5 26t-32.5 73q0 34 29 67.5t82 58.5l-74 235h-266l-79 -243h-93zM435 327l-70 217q-18 55 -30 122h-10q-16 -80 -30 -122l-71 -217h211z" />
    <glyph glyph-name="AE.alt" horiz-adv-x="964" 
d="M909 0h-439v243h-264l-77 -243h-94l215 664l-59 5v74h718v-82h-348v-234h328v-83h-328v-263h348v-81zM470 325v337h-132q-2 -8 -14 -49t-19 -63l-72 -225h237z" />
    <glyph glyph-name="AEacute.alt" horiz-adv-x="964" 
d="M909 0h-439v243h-264l-77 -243h-94l215 664l-59 5v74h718v-82h-348v-234h328v-83h-328v-263h348v-81zM470 325v337h-132q-2 -8 -14 -49t-19 -63l-72 -225h237zM734 943l-150 -154h-90l131 154h109z" />
    <glyph glyph-name="Cacute.alt" horiz-adv-x="557" 
d="M514 943l-150 -154h-90l131 154h109zM527 78v-75q-102 -17 -172 -17q-54 0 -97 8.5t-82 30.5t-65 58t-41 93.5t-15 133.5v123q0 95 22 160t65 99.5t94 48.5t119 14q87 0 172 -17v-146h-72l-10 78q-87 3 -90 3q-109 0 -158.5 -53.5t-49.5 -186.5v-123q0 -133 49.5 -187
t158.5 -54q69 0 172 9z" />
    <glyph glyph-name="Ccircumflex.alt" horiz-adv-x="557" 
d="M520 789h-90l-105 105l-104 -105h-90l135 154h119zM527 78v-75q-102 -17 -172 -17q-54 0 -97 8.5t-82 30.5t-65 58t-41 93.5t-15 133.5v123q0 95 22 160t65 99.5t94 48.5t119 14q87 0 172 -17v-146h-72l-10 78q-87 3 -90 3q-109 0 -158.5 -53.5t-49.5 -186.5v-123
q0 -133 49.5 -187t158.5 -54q69 0 172 9z" />
    <glyph glyph-name="Ccaron.alt" horiz-adv-x="557" 
d="M136 943h90l104 -106l105 106h90l-135 -154h-119zM527 78v-75q-102 -17 -172 -17q-54 0 -97 8.5t-82 30.5t-65 58t-41 93.5t-15 133.5v123q0 95 22 160t65 99.5t94 48.5t119 14q87 0 172 -17v-146h-72l-10 78q-87 3 -90 3q-109 0 -158.5 -53.5t-49.5 -186.5v-123
q0 -133 49.5 -187t158.5 -54q69 0 172 9z" />
    <glyph glyph-name="Cdotaccent.alt" horiz-adv-x="557" 
d="M381 809h-89v120h89v-120zM527 78v-75q-102 -17 -172 -17q-54 0 -97 8.5t-82 30.5t-65 58t-41 93.5t-15 133.5v123q0 95 22 160t65 99.5t94 48.5t119 14q87 0 172 -17v-146h-72l-10 78q-87 3 -90 3q-109 0 -158.5 -53.5t-49.5 -186.5v-123q0 -133 49.5 -187t158.5 -54
q69 0 172 9z" />
    <glyph glyph-name="Dcaron.alt" horiz-adv-x="674" 
d="M131 943h90l104 -106l105 106h90l-135 -154h-119zM85 0v661l-54 8v74h262q167 0 246.5 -81.5t79.5 -228.5v-121q0 -312 -326 -312h-208zM526 312v121q0 123 -58.5 175.5t-182.5 52.5h-108v-580h108q123 0 182 53.5t59 177.5z" />
    <glyph glyph-name="Dcroat.alt" horiz-adv-x="674" 
d="M619 312q0 -312 -326 -312h-208v345h-53v81h53v235l-54 8v74h262q167 0 246.5 -81.5t79.5 -228.5v-121zM526 312v121q0 123 -58.5 175.5t-182.5 52.5h-108v-235h150v-81h-150v-264h108q123 0 182 53.5t59 177.5z" />
    <glyph glyph-name="Ecaron.alt" horiz-adv-x="580" 
d="M105 943h90l104 -106l105 106h90l-135 -154h-119zM525 661h-348v-234h327v-83h-327v-263h348v-81h-440v664l-54 5v74h494v-82z" />
    <glyph glyph-name="Emacron.alt" horiz-adv-x="580" 
d="M461 824h-343v70h343v-70zM525 661h-348v-234h327v-83h-327v-263h348v-81h-440v664l-54 5v74h494v-82z" />
    <glyph glyph-name="Ebreve.alt" horiz-adv-x="580" 
d="M459 944q-13 -155 -169 -155q-157 0 -168 155h67q5 -52 29 -73.5t72 -21.5t72 21.5t30 73.5h67zM525 661h-348v-234h327v-83h-327v-263h348v-81h-440v664l-54 5v74h494v-82z" />
    <glyph glyph-name="Edotaccent.alt" horiz-adv-x="580" 
d="M334 809h-89v120h89v-120zM525 661h-348v-234h327v-83h-327v-263h348v-81h-440v664l-54 5v74h494v-82z" />
    <glyph glyph-name="Eogonek.alt" horiz-adv-x="580" 
d="M525 -207q-27 -10 -85 -10q-62 0 -94.5 26t-32.5 73q0 67 96 118h-324v664l-54 5v74h494v-82h-348v-234h327v-83h-327v-263h348v-81q-82 -37 -109 -63.5t-27 -50.5q0 -46 59 -46q10 0 77 5v-52z" />
    <glyph glyph-name="Gcircumflex.alt" horiz-adv-x="634" 
d="M521 789h-90l-105 105l-104 -105h-90l135 154h119zM569 7q-105 -21 -219 -21q-295 0 -295 320v131q0 318 296 318q114 0 218 -19v-144h-72l-11 76q-80 5 -122 5q-52 0 -87.5 -8.5t-67 -33t-46.5 -72.5t-15 -122v-131q0 -135 52 -185.5t162 -50.5q70 0 115 3v233l-106 8
v72h198v-379z" />
    <glyph glyph-name="Gbreve.alt" horiz-adv-x="634" 
d="M510 944q-13 -155 -169 -155q-157 0 -168 155h67q5 -52 29 -73.5t72 -21.5t72 21.5t30 73.5h67zM569 7q-105 -21 -219 -21q-295 0 -295 320v131q0 318 296 318q114 0 218 -19v-144h-72l-11 76q-80 5 -122 5q-52 0 -87.5 -8.5t-67 -33t-46.5 -72.5t-15 -122v-131
q0 -135 52 -185.5t162 -50.5q70 0 115 3v233l-106 8v72h198v-379z" />
    <glyph glyph-name="Gdotaccent.alt" horiz-adv-x="634" 
d="M381 809h-89v120h89v-120zM569 7q-105 -21 -219 -21q-295 0 -295 320v131q0 318 296 318q114 0 218 -19v-144h-72l-11 76q-80 5 -122 5q-52 0 -87.5 -8.5t-67 -33t-46.5 -72.5t-15 -122v-131q0 -135 52 -185.5t162 -50.5q70 0 115 3v233l-106 8v72h198v-379z" />
    <glyph glyph-name="Gcommaaccent.alt" horiz-adv-x="634" 
d="M402 -68l-89 -142h-82l67 142h104zM569 7q-105 -21 -219 -21q-295 0 -295 320v131q0 318 296 318q114 0 218 -19v-144h-72l-11 76q-80 5 -122 5q-52 0 -87.5 -8.5t-67 -33t-46.5 -72.5t-15 -122v-131q0 -135 52 -185.5t162 -50.5q70 0 115 3v233l-106 8v72h198v-379z" />
    <glyph glyph-name="Hbar.alt" horiz-adv-x="726" 
d="M641 0h-92v351h-372v-351h-92v541h-64v72h64v51l-54 5v74h146v-130h372v130h92v-130h65v-72h-65v-541zM177 434h372v107h-372v-107z" />
    <glyph glyph-name="Hcircumflex.alt" horiz-adv-x="726" 
d="M555 789h-90l-105 105l-104 -105h-90l135 154h119zM641 0h-92v351h-372v-351h-92v664l-54 5v74h146v-309h372v309h92v-743z" />
    <glyph glyph-name="Itilde.alt" horiz-adv-x="262" 
d="M329 906q0 -60 -22 -92t-75 -32q-50 0 -102 41l-41 33q-32 28 -57 28q-20 0 -27.5 -15t-7.5 -46v-34h-65v34q0 124 100 124q49 0 97 -38l42 -34q36 -29 59 -29q21 0 28 14t7 46v34h64v-34zM231 0h-200v73l54 5v586l-54 5v74h200v-74l-54 -5v-586l54 -5v-73z" />
    <glyph glyph-name="Imacron.alt" horiz-adv-x="262" 
d="M302 824h-343v70h343v-70zM231 0h-200v73l54 5v586l-54 5v74h200v-74l-54 -5v-586l54 -5v-73z" />
    <glyph glyph-name="Ibreve.alt" horiz-adv-x="262" 
d="M299 944q-13 -155 -169 -155q-157 0 -168 155h67q5 -52 29 -73.5t72 -21.5t72 21.5t30 73.5h67zM231 0h-200v73l54 5v586l-54 5v74h200v-74l-54 -5v-586l54 -5v-73z" />
    <glyph glyph-name="Idotaccent.alt" horiz-adv-x="262" 
d="M176 809h-89v120h89v-120zM231 0h-200v73l54 5v586l-54 5v74h200v-74l-54 -5v-586l54 -5v-73z" />
    <glyph glyph-name="Iogonek.alt" horiz-adv-x="262" 
d="M231 0q-82 -37 -109 -63.5t-27 -50.5q0 -46 59 -46q10 0 77 5v-52q-27 -10 -85 -10q-62 0 -94.5 26t-32.5 73q0 67 96 118h-84v73l54 5v586l-54 5v74h200v-74l-54 -5v-586l54 -5v-73z" />
    <glyph glyph-name="IJ.alt" horiz-adv-x="502" 
d="M231 0h-200v73l54 5v586l-54 5v74h200v-74l-54 -5v-586l54 -5v-73zM471 669l-54 -5v-724q0 -84 -34 -121.5t-119 -37.5q-50 0 -74 8v69h68q44 0 56 17t12 65v724l-54 5v74h199v-74z" />
    <glyph glyph-name="Jcircumflex.alt" horiz-adv-x="261" 
d="M325 789h-90l-105 105l-104 -105h-90l135 154h119zM230 669l-54 -5v-724q0 -84 -34 -121.5t-119 -37.5q-50 0 -74 8v69h68q44 0 56 17t12 65v724l-54 5v74h199v-74z" />
    <glyph glyph-name="Kcommaaccent.alt" horiz-adv-x="634" 
d="M379 -68l-89 -142h-82l67 142h104zM619 0h-126l-311 358v-358h-92v664l-54 5v74h146v-349l319 349h118l-335 -365z" />
    <glyph glyph-name="Nacute.alt" horiz-adv-x="706" 
d="M518 943l-150 -154h-90l131 154h109zM621 0h-131l-262 533q-50 102 -60 126h-2q5 -82 5 -155v-504h-86v664l-54 5v74h186l259 -519q29 -57 60 -127h2q-5 74 -5 163v483h88v-743z" />
    <glyph glyph-name="Ncaron.alt" horiz-adv-x="706" 
d="M158 943h90l104 -106l105 106h90l-135 -154h-119zM621 0h-131l-262 533q-50 102 -60 126h-2q5 -82 5 -155v-504h-86v664l-54 5v74h186l259 -519q29 -57 60 -127h2q-5 74 -5 163v483h88v-743z" />
    <glyph glyph-name="Ncommaaccent.alt" horiz-adv-x="706" 
d="M418 -68l-89 -142h-82l67 142h104zM621 0h-131l-262 533q-50 102 -60 126h-2q5 -82 5 -155v-504h-86v664l-54 5v74h186l259 -519q29 -57 60 -127h2q-5 74 -5 163v483h88v-743z" />
    <glyph glyph-name="Racute.alt" horiz-adv-x="637" 
d="M463 943l-150 -154h-90l131 154h109zM617 0h-109l-175 290q-20 -1 -70 -1h-86v-289h-92v664l-54 5v74h229q56 0 99 -5t84 -19.5t68 -38.5t43 -63.5t16 -93.5v-7q0 -159 -139 -207zM177 370h86q114 0 164 31t50 115v7q0 83 -50 110.5t-167 27.5h-83v-291z" />
    <glyph glyph-name="Rcaron.alt" horiz-adv-x="637" 
d="M104 943h90l104 -106l105 106h90l-135 -154h-119zM617 0h-109l-175 290q-20 -1 -70 -1h-86v-289h-92v664l-54 5v74h229q56 0 99 -5t84 -19.5t68 -38.5t43 -63.5t16 -93.5v-7q0 -159 -139 -207zM177 370h86q114 0 164 31t50 115v7q0 83 -50 110.5t-167 27.5h-83v-291z" />
    <glyph glyph-name="Rcommaaccent.alt" horiz-adv-x="637" 
d="M386 -68l-89 -142h-82l67 142h104zM617 0h-109l-175 290q-20 -1 -70 -1h-86v-289h-92v664l-54 5v74h229q56 0 99 -5t84 -19.5t68 -38.5t43 -63.5t16 -93.5v-7q0 -159 -139 -207zM177 370h86q114 0 164 31t50 115v7q0 83 -50 110.5t-167 27.5h-83v-291z" />
    <glyph glyph-name="Sacute.alt" horiz-adv-x="585" 
d="M461 943l-150 -154h-90l131 154h109zM284 -14q-131 0 -212 21v73q114 -14 212 -14q77 0 114.5 29t37.5 93q0 46 -21.5 74.5t-79.5 54.5l-127 57q-78 35 -115.5 81t-37.5 120q0 180 243 180q128 0 205 -20v-143h-70l-13 79q-51 4 -119 4q-78 0 -115.5 -22.5t-37.5 -77.5
q0 -44 21 -71t79 -53l128 -56q80 -36 117 -83.5t37 -123.5q0 -98 -62 -150t-184 -52z" />
    <glyph glyph-name="Scircumflex.alt" horiz-adv-x="585" 
d="M475 789h-90l-105 105l-104 -105h-90l135 154h119zM284 -14q-131 0 -212 21v73q114 -14 212 -14q77 0 114.5 29t37.5 93q0 46 -21.5 74.5t-79.5 54.5l-127 57q-78 35 -115.5 81t-37.5 120q0 180 243 180q128 0 205 -20v-143h-70l-13 79q-51 4 -119 4q-78 0 -115.5 -22.5
t-37.5 -77.5q0 -44 21 -71t79 -53l128 -56q80 -36 117 -83.5t37 -123.5q0 -98 -62 -150t-184 -52z" />
    <glyph glyph-name="Scedilla.alt" horiz-adv-x="585" 
d="M377 -68l-136 -142h-92l116 142h112zM284 -14q-131 0 -212 21v73q114 -14 212 -14q77 0 114.5 29t37.5 93q0 46 -21.5 74.5t-79.5 54.5l-127 57q-78 35 -115.5 81t-37.5 120q0 180 243 180q128 0 205 -20v-143h-70l-13 79q-51 4 -119 4q-78 0 -115.5 -22.5t-37.5 -77.5
q0 -44 21 -71t79 -53l128 -56q80 -36 117 -83.5t37 -123.5q0 -98 -62 -150t-184 -52z" />
    <glyph glyph-name="Scommaaccent.alt" horiz-adv-x="585" 
d="M72 7v73q114 -14 212 -14q77 0 114.5 29t37.5 93q0 46 -21.5 74.5t-79.5 54.5l-127 57q-78 35 -115.5 81t-37.5 120q0 180 243 180q128 0 205 -20v-143h-70l-13 79q-51 4 -119 4q-78 0 -115.5 -22.5t-37.5 -77.5q0 -44 21 -71t79 -53l128 -56q80 -36 117 -83.5t37 -123.5
q0 -98 -62 -150t-184 -52q-131 0 -212 21zM370 -68l-89 -142h-82l67 142h104z" />
    <glyph glyph-name="Utilde.alt" horiz-adv-x="699" 
d="M548 906q0 -60 -22 -92t-75 -32q-50 0 -102 41l-41 33q-32 28 -57 28q-20 0 -27.5 -15t-7.5 -46v-34h-65v34q0 124 100 124q49 0 97 -38l42 -34q36 -29 59 -29q21 0 28 14t7 46v34h64v-34zM619 309q0 -323 -269 -323q-270 0 -270 323v356l-54 5v73h146v-424
q0 -137 39 -193.5t139 -56.5t139 57t39 193v424h91v-434z" />
    <glyph glyph-name="Umacron.alt" horiz-adv-x="699" 
d="M520 824h-343v70h343v-70zM619 309q0 -323 -269 -323q-270 0 -270 323v356l-54 5v73h146v-424q0 -137 39 -193.5t139 -56.5t139 57t39 193v424h91v-434z" />
    <glyph glyph-name="Ubreve.alt" horiz-adv-x="699" 
d="M518 944q-13 -155 -169 -155q-157 0 -168 155h67q5 -52 29 -73.5t72 -21.5t72 21.5t30 73.5h67zM619 309q0 -323 -269 -323q-270 0 -270 323v356l-54 5v73h146v-424q0 -137 39 -193.5t139 -56.5t139 57t39 193v424h91v-434z" />
    <glyph glyph-name="Uring.alt" horiz-adv-x="699" 
d="M466 879q0 -55 -31.5 -82t-83.5 -27q-53 0 -85.5 27t-32.5 82t32.5 82t85.5 27q52 0 83.5 -27t31.5 -82zM406 879q0 55 -55 55q-56 0 -56 -55t56 -55q55 0 55 55zM619 309q0 -323 -269 -323q-270 0 -270 323v356l-54 5v73h146v-424q0 -137 39 -193.5t139 -56.5t139 57
t39 193v424h91v-434z" />
    <glyph glyph-name="Uhungarumlaut.alt" horiz-adv-x="699" 
d="M639 943l-150 -154h-91l132 154h109zM317 943h110l-150 -154h-91zM619 309q0 -323 -269 -323q-270 0 -270 323v356l-54 5v73h146v-424q0 -137 39 -193.5t139 -56.5t139 57t39 193v424h91v-434z" />
    <glyph glyph-name="Uogonek.alt" horiz-adv-x="699" 
d="M452 -207q-27 -10 -85 -10q-62 0 -94.5 26t-32.5 73q0 58 71 106q-231 22 -231 321v356l-54 5v73h146v-424q0 -137 39 -193.5t139 -56.5t139 57t39 193v424h91v-434q0 -264 -181 -312q-73 -34 -97.5 -60.5t-24.5 -50.5q0 -46 59 -46q10 0 77 5v-52z" />
    <glyph glyph-name="Zacute.alt" horiz-adv-x="624" 
d="M494 943l-150 -154h-90l131 154h109zM569 81v-81h-514v102l401 559h-306l-9 -69h-71v151h485v-101l-400 -561h414z" />
    <glyph glyph-name="Zdotaccent.alt" horiz-adv-x="624" 
d="M356 809h-89v120h89v-120zM569 81v-81h-514v102l401 559h-306l-9 -69h-71v151h485v-101l-400 -561h414z" />
    <glyph glyph-name="Eng.alt" horiz-adv-x="706" 
d="M621 -60q0 -84 -34 -121.5t-120 -37.5q-48 0 -74 8v69h69q43 0 55 17t12 65v60l-301 533q-31 55 -60 126h-2q5 -82 5 -155v-504h-86v664l-54 5v74h176l259 -456q45 -80 70 -147h2q-5 74 -5 183v420h88v-803z" />
    <glyph glyph-name="amacron.alt" horiz-adv-x="545" 
d="M451 655h-343v70h343v-70zM475 0h-86v37q-73 -51 -175 -51q-164 0 -164 156v20q0 101 62 135.5t191 34.5h82v40q0 72 -23.5 94t-105.5 22q-42 0 -92 -3l-9 -58h-69v113q18 7 69.5 15.5t107.5 8.5q67 0 110 -11.5t65 -38t29.5 -59t7.5 -83.5v-372zM385 100v164h-82
q-92 0 -127.5 -19.5t-35.5 -82.5v-27q0 -44 24 -61.5t68 -17.5q43 0 86.5 14.5t66.5 29.5z" />
    <glyph glyph-name="abreve.alt" horiz-adv-x="545" 
d="M448 770q-13 -155 -169 -155q-157 0 -168 155h67q5 -52 29 -73.5t72 -21.5t72 21.5t30 73.5h67zM475 0h-86v37q-73 -51 -175 -51q-164 0 -164 156v20q0 101 62 135.5t191 34.5h82v40q0 72 -23.5 94t-105.5 22q-42 0 -92 -3l-9 -58h-69v113q18 7 69.5 15.5t107.5 8.5
q67 0 110 -11.5t65 -38t29.5 -59t7.5 -83.5v-372zM385 100v164h-82q-92 0 -127.5 -19.5t-35.5 -82.5v-27q0 -44 24 -61.5t68 -17.5q43 0 86.5 14.5t66.5 29.5z" />
    <glyph glyph-name="aringacute.alt" horiz-adv-x="545" 
d="M475 0h-86v37q-73 -51 -175 -51q-164 0 -164 156v20q0 101 62 135.5t191 34.5h82v40q0 72 -23.5 94t-105.5 22q-42 0 -92 -3l-9 -58h-69v113q18 7 69.5 15.5t107.5 8.5q67 0 110 -11.5t65 -38t29.5 -59t7.5 -83.5v-372zM385 100v164h-82q-92 0 -127.5 -19.5t-35.5 -82.5
v-27q0 -44 24 -61.5t68 -17.5q43 0 86.5 14.5t66.5 29.5zM396 695q0 -55 -31.5 -82t-83.5 -27q-53 0 -85.5 27t-32.5 82t32.5 82t85.5 27q52 0 83.5 -27t31.5 -82zM336 695q0 55 -55 55q-56 0 -56 -55t56 -55q55 0 55 55zM465 980l-150 -154h-90l131 154h109z" />
    <glyph glyph-name="aogonek.alt" horiz-adv-x="545" 
d="M475 -207q-27 -10 -85 -10q-62 0 -94.5 26t-32.5 73q0 39 31 65t95 55v43q-85 -59 -175 -59q-164 0 -164 156v20q0 101 62 135.5t191 34.5h82v40q0 72 -23.5 94t-105.5 22q-42 0 -92 -3l-9 -58h-69v113q18 7 69.5 15.5t107.5 8.5q67 0 110 -11.5t65 -38t29.5 -59
t7.5 -83.5v-372q-82 -37 -109 -63.5t-27 -50.5q0 -46 59 -46q10 0 77 5v-52zM385 108v156h-82q-92 0 -127.5 -19.5t-35.5 -82.5v-27q0 -44 24 -61.5t68 -17.5q73 0 153 52z" />
    <glyph glyph-name="ae.alt" horiz-adv-x="909" 
d="M854 242h-378v-11q0 -42 4.5 -67.5t20 -51.5t50 -38t90.5 -12q90 0 193 18v-72q-86 -22 -195 -22q-148 0 -205 68q-101 -68 -220 -68q-164 0 -164 156v20q0 101 62 135.5t191 34.5h82v40q0 72 -23.5 94t-105.5 22q-42 0 -92 -3l-9 -58h-69v113q18 7 69.5 15.5t107.5 8.5
q82 0 122.5 -15t61.5 -47q59 61 172 61q235 0 235 -273v-48zM762 316v10q0 160 -143 160q-142 0 -142 -160v-10h285zM385 100v164h-82q-92 0 -127.5 -19.5t-35.5 -82.5v-27q0 -44 24 -61.5t68 -17.5q43 0 86.5 14.5t66.5 29.5z" />
    <glyph glyph-name="aeacute.alt" horiz-adv-x="909" 
d="M854 242h-378v-11q0 -42 4.5 -67.5t20 -51.5t50 -38t90.5 -12q90 0 193 18v-72q-86 -22 -195 -22q-148 0 -205 68q-101 -68 -220 -68q-164 0 -164 156v20q0 101 62 135.5t191 34.5h82v40q0 72 -23.5 94t-105.5 22q-42 0 -92 -3l-9 -58h-69v113q18 7 69.5 15.5t107.5 8.5
q82 0 122.5 -15t61.5 -47q59 61 172 61q235 0 235 -273v-48zM762 316v10q0 160 -143 160q-142 0 -142 -160v-10h285zM385 100v164h-82q-92 0 -127.5 -19.5t-35.5 -82.5v-27q0 -44 24 -61.5t68 -17.5q43 0 86.5 14.5t66.5 29.5zM648 770l-150 -154h-90l131 154h109z" />
    <glyph glyph-name="cacute.alt" horiz-adv-x="477" 
d="M450 770l-150 -154h-90l131 154h109zM432 5q-60 -19 -157 -19q-111 0 -165.5 64t-54.5 184v83q0 247 220 247q107 0 157 -19v-118h-70l-9 57q-30 3 -65 3q-72 0 -107.5 -36.5t-35.5 -133.5v-83q0 -97 35.5 -134t107.5 -37q48 0 144 10v-68z" />
    <glyph glyph-name="ccircumflex.alt" horiz-adv-x="477" 
d="M453 616h-90l-105 105l-104 -105h-90l135 154h119zM432 5q-60 -19 -157 -19q-111 0 -165.5 64t-54.5 184v83q0 247 220 247q107 0 157 -19v-118h-70l-9 57q-30 3 -65 3q-72 0 -107.5 -36.5t-35.5 -133.5v-83q0 -97 35.5 -134t107.5 -37q48 0 144 10v-68z" />
    <glyph glyph-name="ccaron.alt" horiz-adv-x="477" 
d="M78 770h90l104 -106l105 106h90l-135 -154h-119zM432 5q-60 -19 -157 -19q-111 0 -165.5 64t-54.5 184v83q0 247 220 247q107 0 157 -19v-118h-70l-9 57q-30 3 -65 3q-72 0 -107.5 -36.5t-35.5 -133.5v-83q0 -97 35.5 -134t107.5 -37q48 0 144 10v-68z" />
    <glyph glyph-name="cdotaccent.alt" horiz-adv-x="477" 
d="M315 651h-89v120h89v-120zM432 5q-60 -19 -157 -19q-111 0 -165.5 64t-54.5 184v83q0 247 220 247q107 0 157 -19v-118h-70l-9 57q-30 3 -65 3q-72 0 -107.5 -36.5t-35.5 -133.5v-83q0 -97 35.5 -134t107.5 -37q48 0 144 10v-68z" />
    <glyph glyph-name="dcaron.alt" horiz-adv-x="691" 
d="M711 774l-74 -229h-69l48 229h95zM501 0h-87v28q-71 -42 -154 -42q-205 0 -205 235v95q0 138 60 193t167 55q61 0 129 -14v145l-61 5v74h151v-774zM411 97v378q-73 13 -123 13q-74 0 -108.5 -34.5t-34.5 -137.5v-95q0 -82 31.5 -120t100.5 -38q64 0 134 34z" />
    <glyph glyph-name="dcroat.alt" horiz-adv-x="578" 
d="M228 668h183v27l-61 5v74h151v-106h49v-64h-49v-604h-87v28q-71 -42 -154 -42q-205 0 -205 235v95q0 138 60 193t167 55q61 0 129 -14v54h-183v64zM411 97v378q-73 13 -123 13q-74 0 -108.5 -34.5t-34.5 -137.5v-95q0 -82 31.5 -120t100.5 -38q64 0 134 34z" />
    <glyph glyph-name="gcircumflex.alt" horiz-adv-x="566" 
d="M524 -46q0 -177 -243 -177q-128 0 -182.5 44.5t-54.5 132.5q0 70 51 119q-45 30 -45 80q0 59 57 101q-40 44 -40 126q0 87 48 135.5t173 48.5h236v-61l-56 -9q35 -48 35 -114q0 -183 -218 -183q-79 0 -125 20q-31 -24 -31 -55q0 -36 50 -36h101q48 0 81 -3t66 -13.5
t53 -29t32 -50t12 -76.5zM435 -45q0 60 -31 79t-124 19h-112q-35 -31 -35 -98q0 -56 28.5 -80.5t119.5 -24.5q88 0 121 25t33 80zM419 380q0 58 -27.5 85.5t-106.5 27.5q-80 0 -106 -27.5t-26 -85.5q0 -57 26.5 -84.5t105.5 -27.5t106.5 27.5t27.5 84.5zM488 616h-90
l-105 105l-104 -105h-90l135 154h119z" />
    <glyph glyph-name="gbreve.alt" horiz-adv-x="566" 
d="M462 770q-13 -155 -169 -155q-157 0 -168 155h67q5 -52 29 -73.5t72 -21.5t72 21.5t30 73.5h67zM524 -46q0 -177 -243 -177q-128 0 -182.5 44.5t-54.5 132.5q0 70 51 119q-45 30 -45 80q0 59 57 101q-40 44 -40 126q0 87 48 135.5t173 48.5h236v-61l-56 -9
q35 -48 35 -114q0 -183 -218 -183q-79 0 -125 20q-31 -24 -31 -55q0 -36 50 -36h101q48 0 81 -3t66 -13.5t53 -29t32 -50t12 -76.5zM435 -45q0 60 -31 79t-124 19h-112q-35 -31 -35 -98q0 -56 28.5 -80.5t119.5 -24.5q88 0 121 25t33 80zM419 380q0 58 -27.5 85.5
t-106.5 27.5q-80 0 -106 -27.5t-26 -85.5q0 -57 26.5 -84.5t105.5 -27.5t106.5 27.5t27.5 84.5z" />
    <glyph glyph-name="gdotaccent.alt" horiz-adv-x="566" 
d="M338 644h-89v120h89v-120zM524 -46q0 -177 -243 -177q-128 0 -182.5 44.5t-54.5 132.5q0 70 51 119q-45 30 -45 80q0 59 57 101q-40 44 -40 126q0 87 48 135.5t173 48.5h236v-61l-56 -9q35 -48 35 -114q0 -183 -218 -183q-79 0 -125 20q-31 -24 -31 -55q0 -36 50 -36h101
q48 0 81 -3t66 -13.5t53 -29t32 -50t12 -76.5zM435 -45q0 60 -31 79t-124 19h-112q-35 -31 -35 -98q0 -56 28.5 -80.5t119.5 -24.5q88 0 121 25t33 80zM419 380q0 58 -27.5 85.5t-106.5 27.5q-80 0 -106 -27.5t-26 -85.5q0 -57 26.5 -84.5t105.5 -27.5t106.5 27.5t27.5 84.5
z" />
    <glyph glyph-name="gcommaaccent.alt" horiz-adv-x="566" 
d="M524 -46q0 -177 -243 -177q-128 0 -182.5 44.5t-54.5 132.5q0 70 51 119q-45 30 -45 80q0 59 57 101q-40 44 -40 126q0 87 48 135.5t173 48.5h236v-61l-56 -9q35 -48 35 -114q0 -183 -218 -183q-79 0 -125 20q-31 -24 -31 -55q0 -36 50 -36h101q48 0 81 -3t66 -13.5
t53 -29t32 -50t12 -76.5zM435 -45q0 60 -31 79t-124 19h-112q-35 -31 -35 -98q0 -56 28.5 -80.5t119.5 -24.5q88 0 121 25t33 80zM419 380q0 58 -27.5 85.5t-106.5 27.5q-80 0 -106 -27.5t-26 -85.5q0 -57 26.5 -84.5t105.5 -27.5t106.5 27.5t27.5 84.5zM231 616l89 142h82
l-67 -142h-104z" />
    <glyph glyph-name="hbar.alt" horiz-adv-x="596" 
d="M340 604h-174v-85q87 45 179 45q90 0 133 -52.5t43 -160.5v-351h-90v348q0 80 -23 109t-81 29q-81 0 -161 -39v-447h-89v604h-59v64h59v32h-54v74h143v-106h174v-64z" />
    <glyph glyph-name="hcircumflex.alt" horiz-adv-x="596" 
d="M488 789h-90l-105 105l-104 -105h-90l135 154h119zM521 0h-90v348q0 80 -23 109t-81 29q-81 0 -161 -39v-447h-89v695l-54 5v74h143v-255q87 45 179 45q90 0 133 -52.5t43 -160.5v-351z" />
    <glyph glyph-name="itilde.alt" horiz-adv-x="256" 
d="M173 0h-90v471l-54 5v74h144v-550zM326 736q0 -60 -22 -92t-75 -32q-50 0 -102 41l-41 33q-32 28 -57 28q-20 0 -27.5 -15t-7.5 -46v-34h-65v34q0 124 100 124q49 0 97 -38l42 -34q36 -29 59 -29q21 0 28 14t7 46v34h64v-34z" />
    <glyph glyph-name="imacron.alt" horiz-adv-x="256" 
d="M173 0h-90v471l-54 5v74h144v-550zM300 655h-343v70h343v-70z" />
    <glyph glyph-name="ibreve.alt" horiz-adv-x="256" 
d="M173 0h-90v471l-54 5v74h144v-550zM297 770q-13 -155 -169 -155q-157 0 -168 155h67q5 -52 29 -73.5t72 -21.5t72 21.5t30 73.5h67z" />
    <glyph glyph-name="iogonek.alt" horiz-adv-x="256" 
d="M232 -207q-27 -10 -85 -10q-62 0 -94.5 26t-32.5 73q0 64 63 121v468l-54 5v74h144v-550q-77 -59 -77 -114q0 -46 59 -46q9 0 77 5v-52zM174 652h-91v122h91v-122z" />
    <glyph glyph-name="ij.alt" horiz-adv-x="521" 
d="M173 0h-90v471l-54 5v74h144v-550zM174 652h-91v122h91v-122zM435 -67q0 -88 -30.5 -122t-108.5 -34q-44 0 -67 5v66q5 0 25.5 -0.5t33.5 -0.5q36 0 46.5 17.5t10.5 68.5v538l-54 5v74h144v-617zM436 652h-91v122h91v-122z" />
    <glyph glyph-name="ij.alt2" horiz-adv-x="521" 
d="M173 0h-90v471l-54 5v74h144v-550zM174 652h-91v122h91v-122zM345 550h90v-617q0 -88 -30.5 -122t-108.5 -34q-44 0 -67 5v66q5 0 25.5 -0.5t33.5 -0.5q36 0 46.5 17.5t10.5 68.5v617zM436 652h-91v122h91v-122z" />
    <glyph glyph-name="jcircumflex.alt" horiz-adv-x="256" 
d="M173 -66q0 -88 -30.5 -122t-108.5 -34q-45 0 -67 5v66q5 0 25.5 -0.5t33.5 -0.5q36 0 46.5 17.5t10.5 68.5v537l-54 5v74h144v-616zM325 616h-90l-105 105l-104 -105h-90l135 154h119z" />
    <glyph glyph-name="kcommaaccent.alt" horiz-adv-x="522" 
d="M332 -68l-89 -142h-82l67 142h104zM507 0h-119l-222 273v-273h-89v695l-54 5v74h143v-472l221 248h116l-238 -261z" />
    <glyph glyph-name="kgreenlandic.alt" horiz-adv-x="522" 
d="M507 0h-119l-222 273v-273h-89v471l-54 5v74h143v-248l221 248h116l-238 -261z" />
    <glyph glyph-name="lacute.alt" horiz-adv-x="255" 
d="M310 963l-150 -154h-90l131 154h109zM172 0h-89v695l-54 5v74h143v-774z" />
    <glyph glyph-name="lcaron.alt" horiz-adv-x="368" 
d="M375 774l-74 -229h-69l48 229h95zM172 0h-89v695l-54 5v74h143v-774z" />
    <glyph glyph-name="lcommaaccent.alt" horiz-adv-x="255" 
d="M177 -68l-89 -142h-82l67 142h104zM172 0h-89v695l-54 5v74h143v-774z" />
    <glyph glyph-name="ldot.alt" horiz-adv-x="370" 
d="M349 300h-91v138h91v-138zM172 0h-89v695l-54 5v74h143v-774z" />
    <glyph glyph-name="nacute.alt" horiz-adv-x="596" 
d="M468 770l-150 -154h-90l131 154h109zM521 0h-90v351q0 78 -18.5 107t-73.5 29q-61 0 -173 -49v-438h-89v471l-54 5v74h143v-43q111 57 183 57q103 0 137.5 -51t34.5 -162v-351z" />
    <glyph glyph-name="ncaron.alt" horiz-adv-x="596" 
d="M110 770h90l104 -106l105 106h90l-135 -154h-119zM521 0h-90v351q0 78 -18.5 107t-73.5 29q-61 0 -173 -49v-438h-89v471l-54 5v74h143v-43q111 57 183 57q103 0 137.5 -51t34.5 -162v-351z" />
    <glyph glyph-name="ncommaaccent.alt" horiz-adv-x="596" 
d="M365 -68l-89 -142h-82l67 142h104zM521 0h-90v351q0 78 -18.5 107t-73.5 29q-61 0 -173 -49v-438h-89v471l-54 5v74h143v-43q111 57 183 57q103 0 137.5 -51t34.5 -162v-351z" />
    <glyph glyph-name="napostrophe.alt" horiz-adv-x="717" 
d="M642 0h-90v351q0 78 -18.5 107t-73.5 29q-61 0 -173 -49v-438h-89v471l-54 5v74h143v-43q111 57 183 57q103 0 137.5 -51t34.5 -162v-351zM146 774l-74 -229h-69l48 229h95z" />
    <glyph glyph-name="racute.alt" horiz-adv-x="376" 
d="M383 770l-150 -154h-90l131 154h109zM166 0h-89v471l-54 5v74h142v-44q74 58 196 58v-80q-54 0 -108.5 -13.5t-86.5 -33.5v-437z" />
    <glyph glyph-name="rcommaaccent.alt" horiz-adv-x="376" 
d="M232 -68l-89 -142h-82l67 142h104zM166 0h-89v471l-54 5v74h142v-44q74 58 196 58v-80q-54 0 -108.5 -13.5t-86.5 -33.5v-437z" />
    <glyph glyph-name="rcaron.alt" horiz-adv-x="376" 
d="M3 770h90l104 -106l105 106h90l-135 -154h-119zM166 0h-89v471l-54 5v74h142v-44q74 58 196 58v-80q-54 0 -108.5 -13.5t-86.5 -33.5v-437z" />
    <glyph glyph-name="sacute.alt" horiz-adv-x="482" 
d="M416 770l-150 -154h-90l131 154h109zM57 8v70q126 -15 177 -15q67 0 92.5 18t25.5 56q0 37 -20 55.5t-91 48.5l-40 17q-81 34 -116 72.5t-35 96.5q0 70 48 103.5t151 33.5q50 0 103 -7t71 -13v-117h-70l-10 56q-58 4 -90 4q-63 0 -88 -12t-25 -48q0 -32 19 -51t77 -44
l40 -17q98 -44 132 -79t34 -97q0 -153 -205 -153q-51 0 -106 8t-74 14z" />
    <glyph glyph-name="scircumflex.alt" horiz-adv-x="482" 
d="M440 616h-90l-105 105l-104 -105h-90l135 154h119zM57 8v70q126 -15 177 -15q67 0 92.5 18t25.5 56q0 37 -20 55.5t-91 48.5l-40 17q-81 34 -116 72.5t-35 96.5q0 70 48 103.5t151 33.5q50 0 103 -7t71 -13v-117h-70l-10 56q-58 4 -90 4q-63 0 -88 -12t-25 -48
q0 -32 19 -51t77 -44l40 -17q98 -44 132 -79t34 -97q0 -153 -205 -153q-51 0 -106 8t-74 14z" />
    <glyph glyph-name="scedilla.alt" horiz-adv-x="482" 
d="M324 -68l-136 -142h-92l116 142h112zM57 8v70q126 -15 177 -15q67 0 92.5 18t25.5 56q0 37 -20 55.5t-91 48.5l-40 17q-81 34 -116 72.5t-35 96.5q0 70 48 103.5t151 33.5q50 0 103 -7t71 -13v-117h-70l-10 56q-58 4 -90 4q-63 0 -88 -12t-25 -48q0 -32 19 -51t77 -44
l40 -17q98 -44 132 -79t34 -97q0 -153 -205 -153q-51 0 -106 8t-74 14z" />
    <glyph glyph-name="scommaaccent.alt" horiz-adv-x="482" 
d="M318 -68l-89 -142h-82l67 142h104zM57 8v70q126 -15 177 -15q67 0 92.5 18t25.5 56q0 37 -20 55.5t-91 48.5l-40 17q-81 34 -116 72.5t-35 96.5q0 70 48 103.5t151 33.5q50 0 103 -7t71 -13v-117h-70l-10 56q-58 4 -90 4q-63 0 -88 -12t-25 -48q0 -32 19 -51t77 -44
l40 -17q98 -44 132 -79t34 -97q0 -153 -205 -153q-51 0 -106 8t-74 14z" />
    <glyph glyph-name="utilde.alt" horiz-adv-x="596" 
d="M503 736q0 -60 -22 -92t-75 -32q-50 0 -102 41l-41 33q-32 28 -57 28q-20 0 -27.5 -15t-7.5 -46v-34h-65v34q0 124 100 124q49 0 97 -38l42 -34q36 -29 59 -29q21 0 28 14t7 46v34h64v-34zM429 550h90v-550h-90v43q-112 -57 -191 -57q-94 0 -128.5 55.5t-34.5 157.5v272
l-54 5v74h143v-351q0 -78 18.5 -107t74.5 -29q60 0 172 49v438z" />
    <glyph glyph-name="umacron.alt" horiz-adv-x="596" 
d="M476 655h-343v70h343v-70zM429 550h90v-550h-90v43q-112 -57 -191 -57q-94 0 -128.5 55.5t-34.5 157.5v272l-54 5v74h143v-351q0 -78 18.5 -107t74.5 -29q60 0 172 49v438z" />
    <glyph glyph-name="ubreve.alt" horiz-adv-x="596" 
d="M473 770q-13 -155 -169 -155q-157 0 -168 155h67q5 -52 29 -73.5t72 -21.5t72 21.5t30 73.5h67zM429 550h90v-550h-90v43q-112 -57 -191 -57q-94 0 -128.5 55.5t-34.5 157.5v272l-54 5v74h143v-351q0 -78 18.5 -107t74.5 -29q60 0 172 49v438z" />
    <glyph glyph-name="uring.alt" horiz-adv-x="596" 
d="M421 715q0 -55 -31.5 -82t-83.5 -27q-53 0 -85.5 27t-32.5 82t32.5 82t85.5 27q52 0 83.5 -27t31.5 -82zM361 715q0 55 -55 55q-56 0 -56 -55t56 -55q55 0 55 55zM429 550h90v-550h-90v43q-112 -57 -191 -57q-94 0 -128.5 55.5t-34.5 157.5v272l-54 5v74h143v-351
q0 -78 18.5 -107t74.5 -29q60 0 172 49v438z" />
    <glyph glyph-name="uhungarumlaut.alt" horiz-adv-x="596" 
d="M591 770l-150 -154h-91l132 154h109zM269 770h110l-150 -154h-91zM429 550h90v-550h-90v43q-112 -57 -191 -57q-94 0 -128.5 55.5t-34.5 157.5v272l-54 5v74h143v-351q0 -78 18.5 -107t74.5 -29q60 0 172 49v438z" />
    </font>
</defs>
</svg>
